<?xml version="1.0" standalone="no"?>
<!DOCTYPE svg PUBLIC "-//W3C//DTD SVG 1.1//EN" "http://www.w3.org/Graphics/SVG/1.1/DTD/svg11.dtd" >
<svg xmlns="http://www.w3.org/2000/svg" xmlns:xlink="http://www.w3.org/1999/xlink" version="1.1">
<metadata>
Created by FontForge 20201107 at Wed Oct 11 13:03:53 2023
 By 
Copyright 2022 The Rethink Sans Project Authors (https://github.com/hans-thiessen/Rethink-Sans)
</metadata>
<defs>
<font id="RethinkSans-Regular" horiz-adv-x="0" >
  <font-face 
    font-family="Rethink Sans"
    font-weight="400"
    font-stretch="normal"
    units-per-em="1000"
    panose-1="0 0 0 0 0 0 0 0 0 0"
    ascent="800"
    descent="-200"
    x-height="496"
    cap-height="700"
    bbox="-200 -259 4821 967"
    underline-thickness="50"
    underline-position="-125"
    unicode-range="U+000D-FB02"
  />
<missing-glyph horiz-adv-x="529" 
d="M64 0v700h401v-700h-401zM134 57h261v586h-261v-586z" />
    <glyph glyph-name="uni018E" unicode="E&#x3c;" horiz-adv-x="600" 
d="M74 0v69h349v267h-305v68h305v227h-349v69h433v-700h-433z" />
    <glyph glyph-name="Yacy" unicode="R&#x3c;" horiz-adv-x="593" 
d="M35 0l201 326q-73 13 -115.5 55t-42.5 124q0 66 28 109t80.5 64.5t125.5 21.5h207v-700h-84v310h-116l-180 -310h-104zM314 381h121v249h-121q-56 0 -89 -13.5t-47 -41.5t-14 -70q0 -41 14 -69t47 -41.5t89 -13.5z" />
    <glyph glyph-name="arrowleft" unicode="&#x3c;&#x2d;&#x2d;" horiz-adv-x="821" 
d="M273 121l-229 229l229 229l55 -54l-99 -97l-46 -39h574v-78h-574l46 -39l99 -97z" />
    <glyph glyph-name="arrowup" unicode="&#x3c;&#x2d;&#x2d;&#x2d;" horiz-adv-x="509" 
d="M216 -1v574l-39 -46l-97 -99l-54 55l229 229l229 -229l-54 -55l-97 99l-39 46v-574h-78z" />
    <glyph glyph-name="arrowright" unicode="&#x2d;&#x2d;&#x3e;" horiz-adv-x="821" 
d="M548 121l-55 54l99 97l46 39h-574v78h574l-46 39l-99 97l55 54l229 -229z" />
    <glyph glyph-name="arrowdown" unicode="&#x2d;&#x2d;&#x2d;&#x3e;" horiz-adv-x="509" 
d="M254 -12l-229 229l54 55l97 -99l39 -46v573h78v-573l39 46l97 99l54 -55z" />
    <glyph glyph-name="uni24EA" unicode="&#x28;&#x30;&#x29;" horiz-adv-x="778" 
d="M389 -12q-75 0 -140.5 28t-115.5 78t-78 115.5t-28 140.5t28 140.5t78 115.5t115.5 78t140.5 28t140.5 -28t115.5 -78t78 -115.5t28 -140.5t-28 -140.5t-78 -115.5t-115.5 -78t-140.5 -28zM389 46q63 0 118 23.5t97 65.5t65.5 97t23.5 118t-23.5 118t-65.5 97t-97 65.5
t-118 23.5t-117.5 -23.5t-96.5 -65.5t-65.5 -97t-23.5 -118t23.5 -118t65.5 -97t96.5 -65.5t117.5 -23.5zM390 165q-70 0 -102 51q-16 25 -24.5 58.5t-8.5 75.5t8.5 75.5t24.5 58.5q32 51 102 51t102 -50t32 -135t-32 -135t-102 -50zM390 223q35 0 51 33q8 17 12.5 40.5
t4.5 53.5t-4.5 53.5t-12.5 40.5q-16 33 -51 33q-34 0 -52 -33q-17 -36 -17 -94t17 -94q18 -33 52 -33z" />
    <glyph glyph-name="uni2780" unicode="&#x28;&#x31;&#x29;" horiz-adv-x="778" 
d="M389 -12q-75 0 -140.5 28t-115.5 78t-78 115.5t-28 140.5t28 140.5t78 115.5t115.5 78t140.5 28t140.5 -28t115.5 -78t78 -115.5t28 -140.5t-28 -140.5t-78 -115.5t-115.5 -78t-140.5 -28zM389 46q63 0 118 23.5t97 65.5t65.5 97t23.5 118t-23.5 118t-65.5 97t-97 65.5
t-118 23.5t-117.5 -23.5t-96.5 -65.5t-65.5 -97t-23.5 -118t23.5 -118t65.5 -97t96.5 -65.5t117.5 -23.5zM276 176v55h96v229l-93 -21v50l120 44h35v-302h81v-55h-239z" />
    <glyph glyph-name="uni2781" unicode="&#x28;&#x32;&#x29;" horiz-adv-x="778" 
d="M389 -12q-75 0 -140.5 28t-115.5 78t-78 115.5t-28 140.5t28 140.5t78 115.5t115.5 78t140.5 28t140.5 -28t115.5 -78t78 -115.5t28 -140.5t-28 -140.5t-78 -115.5t-115.5 -78t-140.5 -28zM389 46q63 0 117.5 23.5t96.5 65.5t65.5 97t23.5 118t-23.5 118t-65.5 97
t-96.5 65.5t-117.5 23.5t-118.5 -24t-97 -66t-65 -97t-23.5 -117t23.5 -117t65 -97t97 -66t118.5 -24zM268 176v47l109 113q11 12 26.5 27.5t27 33t11.5 34.5q0 24 -14.5 38.5t-38.5 14.5q-29 0 -43 -18t-14 -45h-64q1 38 16 64.5t42.5 40.5t63.5 14q40 0 65.5 -15t38 -39.5
t12.5 -53.5q0 -24 -11.5 -46.5t-29 -41.5t-34.5 -35l-76 -78h159v-55h-246z" />
    <glyph glyph-name="uni2782" unicode="&#x28;&#x33;&#x29;" horiz-adv-x="778" 
d="M389 -12q-75 0 -140.5 28t-115.5 78t-78 115.5t-28 140.5t28 140.5t78 115.5t115.5 78t140.5 28t140.5 -28t115.5 -78t78 -115.5t28 -140.5t-28 -140.5t-78 -115.5t-115.5 -78t-140.5 -28zM389 46q63 0 117.5 23.5t96.5 65.5t65.5 97t23.5 118t-23.5 118t-65.5 97
t-96.5 65.5t-117.5 23.5t-118 -23.5t-97 -65.5t-65.5 -97t-23.5 -118t23.5 -118t65.5 -97t97 -65.5t118 -23.5zM390 158q-53 0 -90 29t-39 88h64q0 -28 18.5 -44.5t46.5 -16.5q34 0 49.5 18t15.5 45q0 31 -19 45.5t-45 14.5q-10 0 -19.5 -3t-18.5 -8l-36 42l108 99h-153v55
h234v-54l-91 -82q53 -4 78 -36t25 -73q0 -48 -33 -83.5t-95 -35.5z" />
    <glyph glyph-name="uni2783" unicode="&#x28;&#x34;&#x29;" horiz-adv-x="778" 
d="M389 -12q-75 0 -140.5 28t-115.5 78t-78 115.5t-28 140.5t28 140.5t78 115.5t115.5 78t140.5 28t140.5 -28t115.5 -78t78 -115.5t28 -140.5t-28 -140.5t-78 -115.5t-115.5 -78t-140.5 -28zM405 176v66h-164v52l121 239h64l-116 -234h99v93h61v-93h42v-57h-42v-66h-65z
M389 46q63 0 117.5 23.5t96.5 65.5t65.5 97t23.5 118t-23.5 118t-65.5 97t-96.5 65.5t-117.5 23.5t-118 -23.5t-97 -65.5t-65.5 -97t-23.5 -118t23.5 -118t65.5 -97t97 -65.5t118 -23.5z" />
    <glyph glyph-name="uni2784" unicode="&#x28;&#x35;&#x29;" horiz-adv-x="778" 
d="M389 -12q-75 0 -140.5 28t-115.5 78t-78 115.5t-28 140.5t28 140.5t78 115.5t115.5 78t140.5 28t140.5 -28t115.5 -78t78 -115.5t28 -140.5t-28 -140.5t-78 -115.5t-115.5 -78t-140.5 -28zM389 46q63 0 118 23.5t97 65.5t65.5 97t23.5 118t-23.5 118t-65.5 97t-97 65.5
t-118 23.5t-118 -23.5t-97 -65.5t-65.5 -97t-23.5 -118t23.5 -118t65.5 -97t97 -65.5t118 -23.5zM393 160q-55 0 -92 30.5t-39 76.5h64q5 -25 23.5 -38t43.5 -13q29 0 46.5 22t17.5 51q0 31 -16.5 50.5t-46.5 19.5q-21 0 -38.5 -10t-25.5 -29h-63l30 204h199v-57h-149
l-17 -83q14 15 34 22t40 7q38 0 64 -16.5t39 -44.5t13 -62q0 -58 -35.5 -94t-91.5 -36z" />
    <glyph glyph-name="uni2785" unicode="&#x28;&#x36;&#x29;" horiz-adv-x="778" 
d="M389 -12q-75 0 -140.5 28t-115.5 78t-78 115.5t-28 140.5t28 140.5t78 115.5t115.5 78t140.5 28t140.5 -28t115.5 -78t78 -115.5t28 -140.5t-28 -140.5t-78 -115.5t-115.5 -78t-140.5 -28zM389 46q63 0 118 23.5t97 65.5t65.5 97t23.5 118t-23.5 118t-65.5 97t-97 65.5
t-118 23.5t-117.5 -23.5t-96.5 -65.5t-65.5 -97t-23.5 -118t23.5 -118t65.5 -97t96.5 -65.5t117.5 -23.5zM392 221q23 0 41.5 17t18.5 46q0 27 -17 45t-44 18q-24 0 -42.5 -17.5t-18.5 -44.5t17.5 -45.5t44.5 -18.5zM395 165q-51 0 -81 25.5t-43 65.5t-13 82q0 48 13 93
t42.5 74.5t79.5 29.5q37 0 61.5 -15.5t38 -39t14.5 -48.5h-60q-4 25 -17.5 37t-36.5 12q-28 0 -43.5 -20t-21.5 -49t-6 -58q11 21 33.5 34.5t50.5 13.5q32 0 56.5 -15.5t38 -42t13.5 -58.5q0 -31 -14.5 -58.5t-41 -45t-63.5 -17.5z" />
    <glyph glyph-name="uni2786" unicode="&#x28;&#x37;&#x29;" horiz-adv-x="778" 
d="M389 -12q-75 0 -140.5 28t-115.5 78t-78 115.5t-28 140.5t28 140.5t78 115.5t115.5 78t140.5 28t140.5 -28t115.5 -78t78 -115.5t28 -140.5t-28 -140.5t-78 -115.5t-115.5 -78t-140.5 -28zM312 167l142 302h-193v55h262v-46l-143 -311h-68zM389 46q63 0 118 23.5t97 65.5
t65.5 97t23.5 118t-23.5 118t-65.5 97t-97 65.5t-118 23.5t-117.5 -23.5t-96.5 -65.5t-65.5 -97t-23.5 -118t23.5 -118t65.5 -97t96.5 -65.5t117.5 -23.5z" />
    <glyph glyph-name="uni2787" unicode="&#x28;&#x38;&#x29;" horiz-adv-x="778" 
d="M389 -12q-75 0 -140.5 28t-115.5 78t-78 115.5t-28 140.5t28 140.5t78 115.5t115.5 78t140.5 28t140.5 -28t115.5 -78t78 -115.5t28 -140.5t-28 -140.5t-78 -115.5t-115.5 -78t-140.5 -28zM390 220q27 0 43.5 14.5t16.5 41.5q0 31 -17 44.5t-43 13.5q-25 0 -43 -13
t-18 -45q0 -26 15.5 -41t45.5 -15zM389 46q63 0 118.5 24t97 66t65 97t23.5 117t-23.5 117t-65 97t-97 66t-118.5 24t-117.5 -23.5t-96.5 -65.5t-65.5 -97t-23.5 -118t23.5 -118t65.5 -97t96.5 -65.5t117.5 -23.5zM389 165q-31 0 -60 12t-47 36t-18 58q0 30 16 56t44 36
q-24 11 -37.5 30.5t-13.5 45.5q0 45 32.5 70.5t83.5 25.5q34 0 60.5 -12t41.5 -33.5t15 -50.5q0 -19 -11.5 -41t-39.5 -35q29 -10 44 -35.5t15 -56.5q0 -35 -18 -59t-46.5 -35.5t-60.5 -11.5zM389 383q29 0 40.5 15t11.5 34q0 24 -14 37t-38 13q-51 0 -51 -50q0 -21 13 -35
t38 -14z" />
    <glyph glyph-name="uni2788" unicode="&#x28;&#x39;&#x29;" horiz-adv-x="778" 
d="M389 -12q-75 0 -140.5 28t-115.5 78t-78 115.5t-28 140.5t28 140.5t78 115.5t115.5 78t140.5 28t140.5 -28t115.5 -78t78 -115.5t28 -140.5t-28 -140.5t-78 -115.5t-115.5 -78t-140.5 -28zM389 46q63 0 117.5 23.5t96.5 65.5t65.5 97t23.5 118t-23.5 118t-65.5 97
t-96.5 65.5t-117.5 23.5t-118 -23.5t-97 -65.5t-65.5 -97t-23.5 -118t23.5 -118t65.5 -97t97 -65.5t118 -23.5zM385 165q-33 0 -57.5 13.5t-38.5 37t-18 52.5h60q5 -25 19 -37t36 -12q28 0 43 20t21.5 49.5t6.5 57.5q-10 -18 -31.5 -33t-53.5 -15q-29 0 -54 15t-39.5 41
t-14.5 60q0 32 15 59.5t42 44.5t62 17q53 0 83 -27t42.5 -66.5t12.5 -79.5q0 -49 -13.5 -94.5t-43 -74t-79.5 -28.5zM388 353q26 0 43 18t17 44q0 28 -16.5 46t-44.5 18q-27 0 -43.5 -18.5t-16.5 -44.5q0 -28 16.5 -45.5t44.5 -17.5z" />
    <glyph glyph-name="uni278A" unicode="&#x7b;&#x31;&#x7d;" horiz-adv-x="778" 
d="M389 -12q-75 0 -140.5 28t-115.5 78t-78 115.5t-28 140.5t28 140.5t78 115.5t115.5 78t140.5 28t140.5 -28t115.5 -78t78 -115.5t28 -140.5t-28 -140.5t-78 -115.5t-115.5 -78t-140.5 -28zM275 176h240v55h-82v302h-34l-121 -44v-50l93 21v-229h-96v-55z" />
    <glyph glyph-name="uni278B" unicode="&#x7b;&#x32;&#x7d;" horiz-adv-x="778" 
d="M389 -12q-75 0 -140.5 28t-115.5 78t-78 115.5t-28 140.5t28 140.5t78 115.5t115.5 78t140.5 28t140.5 -28t115.5 -78t78 -115.5t28 -140.5t-28 -140.5t-78 -115.5t-115.5 -78t-140.5 -28zM268 176h246v55h-159l76 78q17 16 34.5 35t29 41.5t11.5 46.5q0 29 -12.5 53.5
t-38 39.5t-65.5 15q-36 0 -63.5 -14t-42.5 -40.5t-16 -64.5h64q0 27 14 45t43 18q24 0 38.5 -14.5t14.5 -38.5q0 -17 -11.5 -34.5t-27 -33t-26.5 -27.5l-109 -113v-47z" />
    <glyph glyph-name="uni278C" unicode="&#x7b;&#x33;&#x7d;" horiz-adv-x="778" 
d="M389 -12q-75 0 -140.5 28t-115.5 78t-78 115.5t-28 140.5t28 140.5t78 115.5t115.5 78t140.5 28t140.5 -28t115.5 -78t78 -115.5t28 -140.5t-28 -140.5t-78 -115.5t-115.5 -78t-140.5 -28zM390 158q62 0 95 35.5t33 83.5q0 41 -25 73t-78 36l91 82v54h-234v-55h153
l-108 -99l36 -42q9 5 18.5 8t19.5 3q26 0 45 -14.5t19 -45.5q0 -27 -15.5 -45t-49.5 -18q-28 0 -46.5 16.5t-18.5 44.5h-64q2 -59 39 -88t90 -29z" />
    <glyph glyph-name="uni278D" unicode="&#x7b;&#x34;&#x7d;" horiz-adv-x="778" 
d="M389 -12q-75 0 -140.5 28t-115.5 78t-78 115.5t-28 140.5t28 140.5t78 115.5t115.5 78t140.5 28t140.5 -28t115.5 -78t78 -115.5t28 -140.5t-28 -140.5t-78 -115.5t-115.5 -78t-140.5 -28zM405 176h66v66h41v57h-41v93h-61v-93h-99l115 234h-64l-120 -239v-52h163v-66z
" />
    <glyph glyph-name="uni278E" unicode="&#x7b;&#x35;&#x7d;" horiz-adv-x="778" 
d="M389 -12q-75 0 -140.5 28t-115.5 78t-78 115.5t-28 140.5t28 140.5t78 115.5t115.5 78t140.5 28t140.5 -28t115.5 -78t78 -115.5t28 -140.5t-28 -140.5t-78 -115.5t-115.5 -78t-140.5 -28zM393 160q56 0 91.5 36t35.5 94q0 34 -13 62t-39 44.5t-64 16.5q-20 0 -40 -7
t-34 -22l17 83h149v57h-199l-30 -204h63q8 19 25.5 29t38.5 10q30 0 46.5 -19.5t16.5 -50.5q0 -29 -17.5 -51t-46.5 -22q-25 0 -43.5 13t-23.5 38h-64q2 -46 39 -76.5t92 -30.5z" />
    <glyph glyph-name="uni278F" unicode="&#x7b;&#x36;&#x7d;" horiz-adv-x="778" 
d="M389 -12q-75 0 -140.5 28t-115.5 78t-78 115.5t-28 140.5t28 140.5t78 115.5t115.5 78t140.5 28t140.5 -28t115.5 -78t78 -115.5t28 -140.5t-28 -140.5t-78 -115.5t-115.5 -78t-140.5 -28zM392 221q-27 0 -44.5 18.5t-17.5 45.5t18.5 44.5t42.5 17.5q27 0 44 -18t17 -45
q0 -29 -18.5 -46t-41.5 -17zM395 165q37 0 63.5 17.5t41 45t14.5 58.5q0 32 -13.5 58.5t-38 42t-56.5 15.5q-28 0 -50.5 -13.5t-33.5 -34.5q0 29 6 58t21.5 49t43.5 20q23 0 36.5 -12t17.5 -37h60q-1 25 -14.5 48.5t-38 39t-61.5 15.5q-50 0 -79.5 -29.5t-42.5 -74.5
t-13 -93q0 -42 13 -82t43 -65.5t81 -25.5z" />
    <glyph glyph-name="uni2790" unicode="&#x7b;&#x37;&#x7d;" horiz-adv-x="778" 
d="M389 -12q-75 0 -140.5 28t-115.5 78t-78 115.5t-28 140.5t28 140.5t78 115.5t115.5 78t140.5 28t140.5 -28t115.5 -78t78 -115.5t28 -140.5t-28 -140.5t-78 -115.5t-115.5 -78t-140.5 -28zM311 167h68l143 311v46h-261v-55h192z" />
    <glyph glyph-name="uni2791" unicode="&#x7b;&#x38;&#x7d;" horiz-adv-x="778" 
d="M389 -12q-75 0 -140.5 28t-115.5 78t-78 115.5t-28 140.5t28 140.5t78 115.5t115.5 78t140.5 28t140.5 -28t115.5 -78t78 -115.5t28 -140.5t-28 -140.5t-78 -115.5t-115.5 -78t-140.5 -28zM389 165q32 0 60.5 11.5t46.5 35.5t18 59q0 31 -15 56.5t-44 35.5q28 13 39.5 35
t11.5 41q0 29 -15 50.5t-41.5 33.5t-60.5 12q-51 0 -83.5 -25.5t-32.5 -70.5q0 -26 13.5 -45.5t37.5 -30.5q-28 -10 -44 -36t-16 -56q0 -34 18 -58t47 -36t60 -12zM390 220q-30 0 -45.5 15t-15.5 41q0 32 18 45t43 13q26 0 43 -13.5t17 -44.5q0 -27 -16.5 -41.5t-43.5 -14.5
zM389 383q-25 0 -38 14t-13 35q0 50 51 50q24 0 38 -13t14 -37q0 -19 -11.5 -34t-40.5 -15z" />
    <glyph glyph-name="uni2792" unicode="&#x7b;&#x39;&#x7d;" horiz-adv-x="778" 
d="M389 -12q-75 0 -140.5 28t-115.5 78t-78 115.5t-28 140.5t28 140.5t78 115.5t115.5 78t140.5 28t140.5 -28t115.5 -78t78 -115.5t28 -140.5t-28 -140.5t-78 -115.5t-115.5 -78t-140.5 -28zM385 165q50 0 79.5 28.5t43 74t13.5 94.5q0 40 -12.5 79.5t-42.5 66.5t-83 27
q-35 0 -62 -17t-42 -44.5t-15 -59.5q0 -34 14.5 -60t39.5 -41t54 -15q32 0 53.5 15t31.5 33q0 -28 -6.5 -57.5t-21.5 -49.5t-43 -20q-22 0 -36 12t-19 37h-60q4 -29 18 -52.5t38.5 -37t57.5 -13.5zM388 353q-28 0 -44.5 17.5t-16.5 45.5q0 26 16.5 44.5t43.5 18.5
q28 0 44.5 -18t16.5 -46q0 -26 -17 -44t-43 -18z" />
    <glyph glyph-name="fi" unicode="fi" horiz-adv-x="567" 
d="M96 0v425h-75v71h75v66q0 72 36 105t105 33h50v-72h-37q-38 0 -54 -15.5t-16 -52.5v-64h122v-71h-122v-425h-84zM404 0v496h84v-496h-84zM447 591q-24 0 -41 16.5t-17 41.5q0 24 17 40t41 16q25 0 41.5 -16t16.5 -40q0 -25 -16.5 -41.5t-41.5 -16.5z" />
    <glyph glyph-name="fl" unicode="fl" horiz-adv-x="555" 
d="M96 0v425h-75v71h75v66q0 72 36 105t105 33h50v-72h-37q-38 0 -54 -15.5t-16 -52.5v-64h122v-71h-122v-425h-84zM402 0v700h84v-700h-84z" />
    <glyph glyph-name="zero.circled.solid" unicode="&#x7b;&#x30;&#x7d;" horiz-adv-x="778" 
d="M389 -12q-75 0 -140.5 28t-115.5 78t-78 115.5t-28 140.5t28 140.5t78 115.5t115.5 78t140.5 28t140.5 -28t115.5 -78t78 -115.5t28 -140.5t-28 -140.5t-78 -115.5t-115.5 -78t-140.5 -28zM389 165q70 0 102 50q33 50 33 135q0 86 -33 135q-32 50 -102 50q-69 0 -102 -51
q-16 -25 -24.5 -58.5t-8.5 -75.5t8.5 -75.5t24.5 -58.5q33 -51 102 -51zM389 223q-34 0 -51 33t-17 94t17 94t51 33q35 0 51 -33q9 -17 13 -40.5t4 -53.5t-4 -53.5t-13 -40.5q-16 -33 -51 -33z" />
    <glyph glyph-name="registered.case" unicode="&#xae;&#x2b;" horiz-adv-x="377" 
d="M189 629q-39 0 -72 19.5t-52.5 52t-19.5 71.5q0 40 19.5 72.5t52.5 52t72 19.5q40 0 72 -19.5t51.5 -52t19.5 -72.5q0 -39 -19.5 -71.5t-51.5 -52t-72 -19.5zM122 700q1 2 7 13t14 24.5t14 24l6 10.5q-29 10 -29 39q0 15 10 29.5t38 14.5h54v-155h-28v65h-18l-5 -9.5
t-12 -22t-12.5 -22.5t-5.5 -11h-33zM189 652q33 0 60.5 16.5t43.5 43.5t16 60t-16 60.5t-43.5 43.5t-60.5 16t-60 -16t-43.5 -43.5t-16.5 -60.5t16.5 -60t43.5 -43.5t60 -16.5zM189 789h19v43h-22q-25 0 -25 -21q0 -11 8 -16.5t20 -5.5z" />
    <glyph glyph-name="REbackwards" unicode="RE&#x3c;" horiz-adv-x="1193" 
d="M35 0l201 326q-73 13 -115.5 55t-42.5 124q0 66 28 109t80.5 64.5t125.5 21.5h207v-700h-84v310h-116l-180 -310h-104zM314 381h121v249h-121q-56 0 -89 -13.5t-47 -41.5t-14 -70q0 -41 14 -69t47 -41.5t89 -13.5zM667 0v69h349v267h-305v68h305v227h-349v69h433v-700
h-433z" />
    <glyph glyph-name="RethinkWordmark" unicode="R&#x3e;" horiz-adv-x="4877" 
d="M3130 0v700h128l329 -489v489h128v-700h-128l-329 488v-488h-128zM22 0l195 316q-71 17 -110 63q-39 47 -39 119q0 96 65 149q67 53 175 53h243v-700h-128v295h-78l-172 -295h-151zM311 404h112v187h-112q-62 0 -87 -25q-26 -24 -26 -68q0 -43 25 -70q26 -24 88 -24z
M736 0v109h321v206h-275v109h275v167h-321v109h449v-700h-449zM1552 0v591h-204v109h537v-109h-205v-591h-128zM2042 0v700h128v-275h314v275h128v-700h-128v316h-314v-316h-128zM2807 0v700h128v-700h-128zM3909 0v700h128v-269l240 269h161l-244 -267l267 -433h-151
l-202 339l-71 -78v-261h-128zM4611 700l41 72q-29 11 -29 39q0 16 10 30t38 14h54v-155h-28v65h-18l-35 -65h-33zM4678 629q-41 0 -73.5 20t-51.5 52.5t-19 70.5q0 35 17.5 68t50 54.5t76.5 21.5q40 0 72.5 -19.5t51.5 -52t19 -72.5q0 -39 -19 -71.5t-51 -52t-73 -19.5z
M4678 652q33 0 60.5 16.5t43.5 43.5t16 60q0 34 -16 61t-43 43t-61 16q-33 0 -60 -16t-43.5 -43.5t-16.5 -60.5q0 -32 16.5 -59.5t44 -44t59.5 -16.5zM4678 789h19v43h-22q-25 0 -25 -21q0 -11 8.5 -16.5t19.5 -5.5z" />
    <glyph glyph-name="Rlogobig" unicode="&#x28;R&#x29;" horiz-adv-x="806" 
d="M403 -12q-75 0 -140.5 28t-115.5 78t-78 115.5t-28 140.5t28 140.5t78 115.5t115.5 78t140.5 28t140.5 -28t115.5 -78t78 -115.5t28 -140.5t-28 -140.5t-78 -115.5t-115.5 -78t-140.5 -28zM234 168q2 3 12.5 22t25.5 45.5t30 52.5t25 43.5l10 17.5q-33 11 -53.5 36
t-20.5 62q0 26 11 51.5t37.5 43t74.5 17.5h137v-391h-73v165h-45l-8.5 -16.5t-21.5 -40.5t-26 -48.5t-22 -41.5t-9 -18h-84zM403 47q63 0 117.5 23.5t96 65.5t65 96.5t23.5 117.5t-23.5 117.5t-65 96t-96 65t-117.5 23.5t-117.5 -23.5t-96.5 -65t-65.5 -96t-23.5 -117.5
t23.5 -117.5t65.5 -96.5t96.5 -65.5t117.5 -23.5zM404 392h46v109h-55q-27 0 -45 -14t-18 -40q0 -28 20.5 -41.5t51.5 -13.5z" />
    <glyph glyph-name=".notdef" horiz-adv-x="529" 
d="M64 0v700h401v-700h-401zM134 57h261v586h-261v-586z" />
    <glyph glyph-name=".null" 
 />
    <glyph glyph-name="nonmarkingreturn" horiz-adv-x="333" 
 />
    <glyph glyph-name="CR" unicode="&#xd;" horiz-adv-x="600" 
 />
    <glyph glyph-name="space" unicode=" " horiz-adv-x="265" 
 />
    <glyph glyph-name="exclam" unicode="!" horiz-adv-x="248" 
d="M87 194l-10 506h91l-10 -506h-71zM125 -5q-25 0 -41.5 16.5t-16.5 40.5t16.5 40.5t41.5 16.5q24 0 40.5 -16.5t16.5 -40.5t-16.5 -40.5t-40.5 -16.5z" />
    <glyph glyph-name="quotedbl" unicode="&#x22;" horiz-adv-x="370" 
d="M190 477l57 223h94l-91 -223h-60zM33 477l58 223h94l-92 -223h-60z" />
    <glyph glyph-name="numbersign" unicode="#" horiz-adv-x="814" 
d="M145 0l43 197h-142v75h158l34 163h-150v74h166l42 197h80l-42 -197h215l42 197h79l-42 -197h139v-74h-155l-34 -163h145v-75h-161l-43 -197h-80l43 197h-215l-42 -197h-80zM283 272h215l35 163h-215z" />
    <glyph glyph-name="dollar" unicode="$" horiz-adv-x="578" 
d="M254 -86v77q-60 7 -107.5 34.5t-75 74.5t-27.5 110h88q0 -59 33.5 -97.5t88.5 -49.5v270l-27 9q-50 18 -85.5 41t-54.5 56.5t-19 80.5q-1 56 23 96.5t67 64.5t96 29v81h69v-81q53 -6 94.5 -30t66.5 -65t26 -97h-88q0 44 -27 76t-72 42v-241l6 -2q48 -16 86 -33.5t64 -41
t40 -56t14 -79.5q0 -58 -28.5 -100t-76 -65.5t-105.5 -28.5v-75h-69zM323 60q54 6 88.5 36.5t34.5 81.5q0 39 -13.5 62.5t-40.5 39.5t-69 30v-250zM254 419v219q-43 -6 -71 -34t-28 -76q0 -43 21.5 -65t77.5 -44z" />
    <glyph glyph-name="percent" unicode="%" horiz-adv-x="773" 
d="M138 0l407 700h84l-407 -700h-84zM200 375q-45 0 -81.5 21t-57.5 58q-21 38 -21 89q0 52 21.5 89.5t58.5 58.5q37 20 81 20q45 0 81 -20t57 -58q11 -19 16 -41.5t5 -48.5q0 -52 -21.5 -89.5t-57.5 -57.5q-36 -21 -81 -21zM200 440q35 0 61.5 26t26.5 77q0 52 -26 78.5
t-61 26.5t-62.5 -26.5t-27.5 -78.5q0 -51 27 -77t62 -26zM574 -12q-45 0 -81.5 21t-57.5 58q-21 38 -21 89q0 52 21.5 89.5t57.5 58.5q37 20 81 20q45 0 81 -20t57 -58q11 -19 16 -41.5t5 -48.5q0 -52 -21 -89.5t-57 -57.5q-36 -21 -81 -21zM573 53q36 0 62.5 26t26.5 77
q0 52 -26 78t-62 26q-35 0 -62 -26t-27 -78q0 -51 26.5 -77t61.5 -26z" />
    <glyph glyph-name="ampersand" unicode="&#x26;" horiz-adv-x="691" 
d="M258 -12q-51 0 -90.5 16t-67 44t-41.5 64t-14 76q0 43 17 79.5t43.5 65.5t55.5 49l6 5l-6 7q-27 32 -43 66.5t-16 74.5q0 50 23.5 90t67 63.5t103.5 23.5t104 -23.5t68.5 -66t24.5 -100.5h-82q0 39 -14 65t-40 39.5t-62 13.5q-34 0 -59 -13.5t-38.5 -37.5t-13.5 -55
q0 -48 35.5 -90t87.5 -94l145 -143l109 197h87l-142 -250l156 -154h-104l-96 95l-5 -8q-37 -43 -84.5 -71t-114.5 -28zM262 61q47 0 82 21.5t67 62.5l-192 188q-40 -25 -66.5 -60t-26.5 -82q0 -33 16.5 -63t47 -48.5t72.5 -18.5z" />
    <glyph glyph-name="quotesingle" unicode="'" horiz-adv-x="213" 
d="M33 477l58 223h94l-92 -223h-60z" />
    <glyph glyph-name="parenleft" unicode="(" horiz-adv-x="372" 
d="M248 -145q-54 52 -100 123.5t-73 161.5q-14 44 -21 92.5t-7 100.5q0 104 27.5 193.5t73.5 161.5q47 72 100 123h86v-8q-92 -90 -147.5 -210.5t-55.5 -259.5t56 -259.5t147 -210.5v-8h-86z" />
    <glyph glyph-name="parenright" unicode=")" horiz-adv-x="372" 
d="M38 -145v8q91 90 147 210.5t56 259.5t-55.5 259.5t-147.5 210.5v8h86q27 -26 52 -57t48 -66q46 -72 73.5 -161.5t27.5 -193.5q0 -52 -6.5 -100.5t-20.5 -92.5q-28 -90 -74 -161.5t-100 -123.5h-86z" />
    <glyph glyph-name="asterisk" unicode="*" horiz-adv-x="478" 
d="M211 356v137l-118 -68l-30 51l118 69l-118 68l30 51l118 -68v137h59v-137l120 68l29 -51l-119 -68l119 -69l-29 -51l-120 68v-137h-59z" />
    <glyph glyph-name="plus" unicode="+" horiz-adv-x="600" 
d="M263 72v183h-191v71h191v182h75v-182h191v-71h-191v-183h-75z" />
    <glyph glyph-name="comma" unicode="," horiz-adv-x="178" 
d="M2 -119l58 221h87l-87 -221h-58z" />
    <glyph glyph-name="hyphen" unicode="-" horiz-adv-x="513" 
d="M59 255v71h396v-71h-396z" />
    <glyph glyph-name="period" unicode="." horiz-adv-x="195" 
d="M98 -5q-25 0 -41.5 16.5t-16.5 40.5t16.5 40.5t41.5 16.5q24 0 40.5 -16.5t16.5 -40.5t-16.5 -40.5t-40.5 -16.5z" />
    <glyph glyph-name="slash" unicode="/" horiz-adv-x="391" 
d="M28 -95l251 859h83l-251 -859h-83z" />
    <glyph glyph-name="zero" unicode="0" horiz-adv-x="600" 
d="M301 -12q-96 0 -154 48t-84 130t-26 184t26 184t84 130t154 48t153.5 -47t83.5 -129t26 -186t-26 -186t-83.5 -129t-153.5 -47zM301 63q92 0 134.5 77t42.5 210t-42.5 210t-134.5 77q-91 0 -134.5 -77t-43.5 -210t43.5 -210t134.5 -77z" />
    <glyph glyph-name="one" unicode="1" horiz-adv-x="600" 
d="M89 0v69h215v535l-212 -57v59l249 94h44v-631h178v-69h-474z" />
    <glyph glyph-name="two" unicode="2" horiz-adv-x="600" 
d="M73 0v73l15.5 16.5t41.5 42.5t55.5 57t58.5 61t51 53q37 38 66.5 71t47.5 64t18 62q0 62 -30.5 101t-98.5 39q-43 0 -74.5 -19.5t-48 -52.5t-16.5 -76h-81q0 67 27.5 116t77.5 76.5t116 27.5q65 0 112.5 -23.5t73.5 -70t26 -115.5q0 -47 -23 -88t-55 -75t-59 -62
q-16 -16 -41.5 -42t-53 -54.5t-52 -54t-40 -41.5l-15.5 -16h363v-70h-462z" />
    <glyph glyph-name="three" unicode="3" horiz-adv-x="600" 
d="M303 -12q-69 0 -122 24.5t-85.5 70t-39.5 107.5h81q13 -55 54 -92.5t112 -37.5q77 0 118.5 43t41.5 109q0 71 -43.5 108t-115.5 37q-19 0 -38 -5t-37 -16l-52 59l241 236h-333v69h436v-66l-218 -215q45 5 88 -6.5t77.5 -37.5t55 -67t20.5 -95q0 -71 -30.5 -121.5
t-84.5 -77t-126 -26.5z" />
    <glyph glyph-name="four" unicode="4" horiz-adv-x="600" 
d="M386 0v150h-344v65l243 485h83l-237 -476h259v199h79v-199h102v-74h-102v-150h-83z" />
    <glyph glyph-name="five" unicode="5" horiz-adv-x="600" 
d="M306 -12q-67 0 -120.5 24.5t-86.5 70t-41 106.5h82q12 -58 56 -93.5t111 -35.5q50 0 86 23t55.5 63t19.5 90q0 78 -44 126t-114 48q-58 0 -99 -26t-60 -68h-80l60 384h367v-73h-302l-41 -213q24 29 66.5 48t97.5 19q69 0 120.5 -32t80.5 -87q14 -28 21.5 -59t7.5 -66
q0 -73 -30.5 -129t-85 -88t-127.5 -32z" />
    <glyph glyph-name="six" unicode="6" horiz-adv-x="600" 
d="M318 -12q-71 0 -120.5 28.5t-79.5 76.5q-29 48 -42.5 107.5t-13.5 121.5q0 116 30 203.5t88 136.5q28 25 62.5 37.5t74.5 12.5q62 0 106.5 -26t70.5 -70q13 -22 20.5 -46t11.5 -50h-77q-10 57 -45.5 88t-87.5 31q-47 0 -86 -30.5t-63 -96t-26 -171.5q23 47 70 77t117 30
q57 0 106.5 -28t80.5 -79t31 -118q0 -59 -27.5 -113t-79.5 -88q-50 -34 -121 -34zM313 62q47 0 80 21.5t50.5 57.5t17.5 78q0 71 -42.5 113.5t-105.5 42.5q-44 0 -78 -22t-52.5 -57.5t-18.5 -77.5q0 -44 18.5 -79.5t52.5 -56t78 -20.5z" />
    <glyph glyph-name="seven" unicode="7" horiz-adv-x="600" 
d="M164 0l297 628h-406v72h492v-63l-294 -637h-89z" />
    <glyph glyph-name="eight" unicode="8" horiz-adv-x="600" 
d="M300 -12q-65 0 -118.5 25t-85 70.5t-31.5 106.5q0 64 36 115t97 68q-55 19 -85 61t-30 92q0 59 29.5 100.5t79 63.5t108.5 22q62 0 111 -23t78 -65t29 -98q0 -49 -30 -91.5t-86 -61.5q61 -17 97 -68t36 -115q0 -46 -18 -83t-50.5 -63.5t-75 -41t-91.5 -14.5zM300 62
q71 0 111 36.5t40 96.5q0 68 -43.5 103t-107.5 35t-107.5 -35t-43.5 -103q0 -60 40.5 -96.5t110.5 -36.5zM300 403q56 0 94.5 32.5t38.5 85.5q0 59 -39 89t-94 30t-93.5 -30t-38.5 -89q0 -53 38 -85.5t94 -32.5z" />
    <glyph glyph-name="nine" unicode="9" horiz-adv-x="600" 
d="M287 -12q-62 0 -106.5 26.5t-70.5 69.5q-26 45 -32 96h77q11 -57 46 -88t87 -31q47 0 86 30.5t63 96.5t26 171q-22 -47 -69.5 -77t-118.5 -30q-56 0 -105.5 28t-80.5 79q-31 49 -31 118q0 59 27 113t79 88q50 34 122 34q71 0 120.5 -28.5t78.5 -76.5q30 -48 43.5 -107.5
t13.5 -121.5q0 -116 -30.5 -203t-87.5 -137q-28 -25 -62.5 -37.5t-74.5 -12.5zM291 325q45 0 78.5 22.5t52 58.5t18.5 76q0 46 -20 81t-53.5 55t-75.5 20q-46 0 -79 -21t-51 -56.5t-18 -79.5q0 -71 42 -113.5t106 -42.5z" />
    <glyph glyph-name="colon" unicode=":" horiz-adv-x="199" 
d="M98 394q-25 0 -41.5 16.5t-16.5 40.5t16.5 40.5t41.5 16.5q24 0 40.5 -16.5t16.5 -40.5t-16.5 -40.5t-40.5 -16.5zM98 -5q-25 0 -41.5 16.5t-16.5 40.5t16.5 40.5t41.5 16.5q24 0 40.5 -16.5t16.5 -40.5t-16.5 -40.5t-40.5 -16.5z" />
    <glyph glyph-name="semicolon" unicode=";" horiz-adv-x="223" 
d="M23 -119l58 221h87l-87 -221h-58zM123 394q-25 0 -41.5 16.5t-16.5 40.5t16.5 40.5t41.5 16.5q24 0 40.5 -16.5t16.5 -40.5t-16.5 -40.5t-40.5 -16.5z" />
    <glyph glyph-name="less" unicode="&#x3c;" horiz-adv-x="600" 
d="M369 137l-244 230l244 231h107l-245 -231l245 -230h-107z" />
    <glyph glyph-name="equal" unicode="=" horiz-adv-x="600" 
d="M101 359v72h399v-72h-399zM101 151v72h399v-72h-399z" />
    <glyph glyph-name="greater" unicode="&#x3e;" horiz-adv-x="600" 
d="M125 137l245 230l-245 231h107l244 -231l-244 -230h-107z" />
    <glyph glyph-name="question" unicode="?" horiz-adv-x="516" 
d="M151 196l-4 161h31q56 0 104.5 11t78.5 43t30 96q0 62 -38.5 98t-101.5 36q-64 0 -101 -35t-37 -94h-80q0 60 27.5 105t76.5 70q25 13 53.5 19t60.5 6q65 0 115 -25t78 -71q14 -23 21 -50t7 -59q0 -74 -31 -120t-87 -67q-28 -10 -60 -15.5t-67 -5.5l-3 -103h-73zM187 -5
q-25 0 -41.5 16.5t-16.5 40.5t16.5 40.5t41.5 16.5t41 -16.5t16 -40.5t-16 -40.5t-41 -16.5z" />
    <glyph glyph-name="at" unicode="@" horiz-adv-x="1034" 
d="M519 -212q-97 0 -179 31t-142 88t-93 136t-33 175q0 98 34.5 178.5t96 138t143.5 88.5t177 31q91 0 171 -28t140.5 -81t95 -128t34.5 -169q0 -65 -20.5 -121.5t-61.5 -90.5t-105 -34q-43 0 -74.5 20.5t-47.5 57.5q-25 -30 -61.5 -55t-95.5 -25q-63 0 -110 28.5t-73.5 78
t-26.5 112.5t26.5 112t74 76.5t110.5 27.5q45 0 82 -16.5t63 -48.5v55h80v-278q0 -32 17.5 -53t49.5 -21q40 0 63 26.5t33 66.5t10 80q0 106 -48 184t-132.5 120.5t-193.5 42.5q-82 0 -151.5 -27.5t-121.5 -78t-81 -119t-29 -150.5q0 -84 29.5 -152t81.5 -116t120.5 -74
t147.5 -26q50 0 96 9t86 28l20 -60q-19 -8 -40.5 -15t-46.5 -12q-57 -12 -115 -12zM510 72q67 0 103.5 42.5t36.5 103.5q0 43 -17 75.5t-48.5 51.5t-74.5 19q-64 0 -101.5 -41.5t-37.5 -104.5q0 -67 39 -106.5t100 -39.5z" />
    <glyph glyph-name="A" unicode="A" horiz-adv-x="664" 
d="M30 0l258 700h89l257 -700h-89l-64 180h-298l-65 -180h-88zM208 248h248l-124 346z" />
    <glyph glyph-name="B" unicode="B" horiz-adv-x="602" 
d="M74 0v700h241q99 0 156.5 -47.5t57.5 -123.5q0 -58 -31.5 -98t-76.5 -54q46 -14 77 -40t47 -60.5t16 -77.5q0 -58 -24 -103t-73.5 -70.5t-125.5 -25.5h-264zM158 70h154q77 0 120.5 32t43.5 102q0 71 -47 103t-119 32h-152v-269zM158 406h151q65 0 100 30.5t35 81.5
q0 53 -35 82.5t-103 29.5h-148v-224z" />
    <glyph glyph-name="C" unicode="C" horiz-adv-x="720" 
d="M381 -12q-106 0 -181 47.5t-114 129.5t-39 185q0 102 38.5 184t113.5 130t182 48q120 0 195.5 -57.5t96.5 -160.5h-93q-16 65 -65.5 104.5t-133.5 39.5q-83 0 -138 -38.5t-82.5 -103.5t-27.5 -146q0 -83 28.5 -148t83.5 -102.5t136 -37.5q84 0 133.5 38.5t65.5 102.5h93
q-21 -101 -96.5 -158t-195.5 -57z" />
    <glyph glyph-name="D" unicode="D" horiz-adv-x="696" 
d="M74 0v700h215q124 0 203.5 -42.5t118 -121t38.5 -188.5q0 -108 -38.5 -186t-118 -120t-203.5 -42h-215zM158 70h129q100 0 160.5 32.5t87.5 95t27 150.5q0 143 -66 212.5t-209 69.5h-129v-560z" />
    <glyph glyph-name="E" unicode="E" horiz-adv-x="564" 
d="M74 0v700h433v-69h-349v-227h305v-68h-305v-267h349v-69h-433z" />
    <glyph glyph-name="F" unicode="F" horiz-adv-x="534" 
d="M74 0v700h426v-69h-342v-236h291v-68h-291v-327h-84z" />
    <glyph glyph-name="G" unicode="G" horiz-adv-x="757" 
d="M375 -12q-100 0 -173.5 46.5t-114 128t-40.5 186.5q0 104 40 186t116 129.5t184 47.5q118 0 196.5 -57t101.5 -157h-97q-14 63 -66.5 100t-134.5 37q-83 0 -140 -38t-85.5 -102.5t-28.5 -145.5q0 -82 29 -147t84 -102t132 -37q112 0 169 65.5t65 179.5h-252v66h338v-374
h-77l-7 115q-38 -61 -93 -94t-146 -33z" />
    <glyph glyph-name="H" unicode="H" horiz-adv-x="679" 
d="M74 0v700h84v-295h363v295h84v-700h-84v336h-363v-336h-84z" />
    <glyph glyph-name="I" unicode="I" horiz-adv-x="232" 
d="M74 0v700h84v-700h-84z" />
    <glyph glyph-name="J" unicode="J" horiz-adv-x="499" 
d="M230 -12q-95 0 -149 53t-54 147h85q0 -53 26 -89t91 -36q63 0 87.5 35t24.5 87v515h84v-515q0 -93 -51.5 -145t-143.5 -52z" />
    <glyph glyph-name="K" unicode="K" horiz-adv-x="582" 
d="M542 700l-246 -264l273 -436h-102l-231 371l-78 -83v-288h-84v700h84v-302l278 302h106z" />
    <glyph glyph-name="L" unicode="L" horiz-adv-x="525" 
d="M74 0v700h84v-633h326v-67h-410z" />
    <glyph glyph-name="M" unicode="M" horiz-adv-x="827" 
d="M74 0v700h98l242 -486l240 486h99v-700h-84v548l-224 -448h-63l-224 447v-547h-84z" />
    <glyph glyph-name="N" unicode="N" horiz-adv-x="689" 
d="M74 0v700h84l373 -561v561h84v-700h-84l-373 561v-561h-84z" />
    <glyph glyph-name="O" unicode="O" horiz-adv-x="784" 
d="M392 -12q-80 0 -144 27.5t-109 76.5t-68.5 115t-23.5 143t23.5 143t68.5 115t108.5 76.5t144.5 27.5q80 0 143.5 -26.5t108.5 -75t69 -115t24 -145.5t-24 -145.5t-69 -115t-108.5 -75t-143.5 -26.5zM392 62q82 0 140 37t88.5 102t30.5 149q0 86 -30.5 150.5t-88.5 100.5
t-140 36q-81 0 -139 -37t-89 -101.5t-31 -148.5q0 -83 31 -148.5t89 -102.5t139 -37z" />
    <glyph glyph-name="P" unicode="P" horiz-adv-x="579" 
d="M74 0v700h231q74 0 127 -22t82 -66t29 -110q0 -68 -30.5 -112t-84 -65t-123.5 -21h-147v-304h-84zM158 375h145q84 0 119 32.5t35 94.5q0 63 -35 95.5t-119 32.5h-145v-255z" />
    <glyph glyph-name="Q" unicode="Q" horiz-adv-x="789" 
d="M677 -11l-70 67q-42 -32 -96 -50t-119 -18q-80 0 -144 27.5t-109 76.5t-68.5 115t-23.5 143t23.5 143t68.5 115t108.5 76.5t144.5 27.5q80 0 143.5 -26.5t108.5 -75t69 -115t24 -145.5q0 -73 -20.5 -135t-58.5 -109l69 -65zM133 350q0 -83 31 -148.5t89 -102.5t139 -37
q48 0 88.5 12t71.5 36l-109 105l51 52l107 -105q25 37 37.5 85t12.5 103q0 86 -30.5 150.5t-88.5 100.5t-140 36q-81 0 -139 -37t-89 -101.5t-31 -148.5z" />
    <glyph glyph-name="R" unicode="R" horiz-adv-x="593" 
d="M74 0v700h207q74 0 126 -21.5t80 -64.5t28 -109q0 -82 -42.5 -124t-115.5 -55l201 -326h-104l-180 310h-116v-310h-84zM158 381h121q56 0 89 13.5t47 41.5t14 69q0 42 -14 70t-47 41.5t-89 13.5h-121v-249z" />
    <glyph glyph-name="S" unicode="S" horiz-adv-x="578" 
d="M297 -12q-71 0 -128.5 26t-91 75.5t-33.5 120.5h88q0 -70 46 -110.5t119 -40.5q64 0 106.5 31t42.5 88q0 39 -13.5 62.5t-40.5 39t-68 29.5t-97 33q-50 18 -85.5 41t-54.5 56.5t-19 80.5q-1 62 28.5 104.5t80 65t111.5 22.5q62 0 111.5 -22.5t79.5 -66t31 -105.5h-88
q0 53 -38 87.5t-99 34.5q-54 2 -92 -27t-38 -85q0 -37 15.5 -58.5t53.5 -37.5t105 -39q48 -16 86 -33.5t64 -41t40 -56t14 -79.5q0 -63 -32.5 -106.5t-86 -66t-117.5 -22.5z" />
    <glyph glyph-name="T" unicode="T" horiz-adv-x="560" 
d="M238 0v631h-209v69h502v-69h-209v-631h-84z" />
    <glyph glyph-name="U" unicode="U" horiz-adv-x="656" 
d="M327 -12q-92 0 -149 37.5t-83.5 99t-26.5 133.5v442h84v-443q0 -102 49 -148t128 -46t127 46t48 148v443h84v-442q0 -77 -23 -129t-61.5 -83t-84.5 -44.5t-92 -13.5z" />
    <glyph glyph-name="V" unicode="V" horiz-adv-x="668" 
d="M285 0l-263 700h91l221 -611l223 611h89l-263 -700h-98z" />
    <glyph glyph-name="W" unicode="W" horiz-adv-x="967" 
d="M273 0l-250 700h86l212 -621l107 304l-111 317h86l80 -248l80 248h86l-111 -317l107 -304l212 621h86l-250 -700h-96l-114 319l-114 -319h-96z" />
    <glyph glyph-name="X" unicode="X" horiz-adv-x="602" 
d="M31 0l221 376l-194 324h94l149 -249l141 249h95l-191 -323l225 -377h-94l-180 300l-170 -300h-96z" />
    <glyph glyph-name="Y" unicode="Y" horiz-adv-x="579" 
d="M248 0v266l-228 434h95l175 -354l175 354h94l-227 -434v-266h-84z" />
    <glyph glyph-name="Z" unicode="Z" horiz-adv-x="535" 
d="M44 0v66l345 561h-340v73h438v-66l-346 -561h350v-73h-447z" />
    <glyph glyph-name="bracketleft" unicode="[" horiz-adv-x="307" 
d="M74 -151v962h174v-69h-95v-823h95v-70h-174z" />
    <glyph glyph-name="backslash" unicode="\" horiz-adv-x="391" 
d="M280 -95l-252 859h84l250 -859h-82z" />
    <glyph glyph-name="bracketright" unicode="]" horiz-adv-x="307" 
d="M59 -151v70h95v823h-95v69h174v-962h-174z" />
    <glyph glyph-name="asciicircum" unicode="^" horiz-adv-x="620" 
d="M37 178l235 522h77l235 -522h-86l-187 419l-188 -419h-86z" />
    <glyph glyph-name="underscore" unicode="_" horiz-adv-x="642" 
d="M59 -115v79h524v-79h-524z" />
    <glyph glyph-name="grave" unicode="`" 
d="M105 557l-210 117v73l210 -127v-63z" />
    <glyph glyph-name="a" unicode="a" horiz-adv-x="571" 
d="M234 -12q-51 0 -93 17t-66.5 51.5t-24.5 84.5q0 58 30 92.5t79.5 50t106.5 15.5h134q0 52 -17.5 82t-45.5 43t-62 13q-49 0 -84.5 -23.5t-44.5 -72.5h-86q5 54 36 91t78.5 56.5t100.5 19.5q75 0 121 -27.5t67 -73.5t21 -102v-152q0 -37 9 -56t46 -23v-74q-33 0 -60 8.5
t-45.5 28t-26.5 51.5q-25 -42 -68.5 -71t-104.5 -29zM247 59q50 0 84 25.5t51.5 65.5t17.5 83v1h-127q-35 0 -66 -7.5t-50 -27t-19 -54.5q0 -45 32 -65.5t77 -20.5z" />
    <glyph glyph-name="b" unicode="b" horiz-adv-x="628" 
d="M334 -12q-61 0 -108.5 25t-72.5 70l-8 -83h-76v700h84v-286q24 36 68.5 65t113.5 29q75 0 130 -34t85 -93t30 -134q0 -74 -30 -133t-85.5 -92.5t-130.5 -33.5zM325 61q51 0 89 23.5t59.5 66t21.5 97.5q0 53 -20.5 95.5t-58.5 67t-91 24.5q-50 0 -88.5 -23.5t-60 -65.5
t-21.5 -98q0 -52 21 -94.5t59 -67.5t90 -25z" />
    <glyph glyph-name="c" unicode="c" horiz-adv-x="570" 
d="M297 -12q-70 0 -126.5 32t-89.5 90.5t-33 137.5q0 77 32 135.5t88 91.5t129 33q88 0 148.5 -46t76.5 -123h-86q-10 46 -49 71.5t-91 25.5q-53 0 -89 -26t-54.5 -69t-18.5 -93q0 -55 21 -98t57.5 -67t83.5 -24q52 0 91 25.5t49 72.5h86q-10 -50 -41 -88t-78 -59.5
t-106 -21.5z" />
    <glyph glyph-name="d" unicode="d" horiz-adv-x="628" 
d="M294 -12q-76 0 -131 35t-85 94t-30 132q0 72 29.5 131t84.5 93.5t133 34.5q61 0 108 -25t73 -70v287h84v-700h-76l-8 82q-24 -36 -69 -65t-113 -29zM303 61q55 0 93 25.5t57.5 68t19.5 93.5q0 54 -20 96t-58 66.5t-92 24.5q-48 0 -86 -23t-60.5 -64.5t-22.5 -99.5
t23 -100t61.5 -64.5t84.5 -22.5z" />
    <glyph glyph-name="e" unicode="e" horiz-adv-x="569" 
d="M292 -12q-69 0 -124.5 32t-87.5 90.5t-32 137.5q0 78 30.5 136.5t86 91t129.5 32.5q70 0 122 -31t81.5 -83.5t29.5 -117.5v-22t-1 -25h-395q3 -49 23.5 -87.5t56 -60.5t81.5 -22q52 0 87 24t51 65h83q-13 -46 -43 -82t-74.5 -57t-103.5 -21zM132 294h312q-3 67 -46 105
t-106 38q-60 0 -106.5 -36.5t-53.5 -106.5z" />
    <glyph glyph-name="f" unicode="f" horiz-adv-x="333" 
d="M96 0v425h-75v71h75v66q0 72 36 105t105 33h50v-72h-37q-38 0 -54 -15.5t-16 -52.5v-64h122v-71h-122v-425h-84z" />
    <glyph glyph-name="g" unicode="g" horiz-adv-x="529" 
d="M266 -232q-59 0 -113 15t-87.5 50.5t-33.5 94.5q0 41 19 68t50 41q-24 14 -39 35t-15 48q0 60 54 97q-20 23 -31.5 51.5t-11.5 63.5q0 55 25.5 94.5t70 60.5t101.5 21q42 0 79 -12h169v-71h-77q13 -20 19.5 -43.5t6.5 -49.5q0 -57 -26.5 -96t-71 -59.5t-99.5 -20.5
q-28 0 -51 6t-46 17q-26 -13 -26 -40q0 -50 84 -50h83q56 0 99 -14.5t67.5 -47t24.5 -88.5q0 -57 -32 -95t-83 -57t-109 -19zM264 -162q60 0 102 22.5t42 68.5q0 86 -104 86h-85q-49 0 -77 -21.5t-28 -64.5q0 -33 21 -53t55 -29t74 -9zM253 226q52 0 85 30t33 76t-33 76
t-85 30t-83.5 -30t-31.5 -76t30.5 -76t84.5 -30z" />
    <glyph glyph-name="h" unicode="h" horiz-adv-x="572" 
d="M69 0v700h84v-289q25 46 71 71.5t100 25.5q86 0 138 -53.5t52 -164.5v-290h-83v281q0 77 -31.5 116t-93.5 39q-65 0 -109 -46.5t-44 -132.5v-257h-84z" />
    <glyph glyph-name="i" unicode="i" horiz-adv-x="239" 
d="M120 606q-25 0 -41.5 16.5t-16.5 41.5q0 24 16.5 40t41.5 16q24 0 41 -16t17 -40q0 -25 -17 -41.5t-41 -16.5zM78 0v496h84v-496h-84z" />
    <glyph glyph-name="j" unicode="j" horiz-adv-x="242" 
d="M-28 -220v72h39q37 0 53.5 15.5t16.5 52.5v576h84v-578q0 -48 -16 -78.5t-47.5 -45t-77.5 -14.5h-52zM124 606q-24 0 -41 16.5t-17 41.5q0 24 17 40t41 16t40.5 -16t16.5 -40q0 -25 -16.5 -41.5t-40.5 -16.5z" />
    <glyph glyph-name="k" unicode="k" horiz-adv-x="504" 
d="M69 0v700h84v-413l203 209h103l-220 -224l248 -272h-107l-227 257v-257h-84z" />
    <glyph glyph-name="l" unicode="l" horiz-adv-x="222" 
d="M69 0v700h84v-700h-84z" />
    <glyph glyph-name="m" unicode="m" horiz-adv-x="895" 
d="M69 0v496h76l6 -72q24 40 64 62t90 22q59 0 101.5 -24t65.5 -73q26 45 71.5 71t98.5 26q60 0 103.5 -23.5t67.5 -72t24 -122.5v-290h-83v281q0 77 -31 116t-89 39q-60 0 -99.5 -46.5t-39.5 -132.5v-257h-84v281q0 77 -31 116t-89 39q-59 0 -98.5 -46.5t-39.5 -132.5v-257
h-84z" />
    <glyph glyph-name="n" unicode="n" horiz-adv-x="573" 
d="M69 0v496h76l5 -89q24 47 69 74t102 27q88 0 140.5 -53.5t52.5 -164.5v-290h-84v281q0 77 -32 116t-96 39t-106.5 -46.5t-42.5 -132.5v-257h-84z" />
    <glyph glyph-name="o" unicode="o" horiz-adv-x="604" 
d="M298 -12q-68 0 -125 30.5t-91 89t-34 141.5q0 79 33.5 137t91 90t129.5 32q69 0 126.5 -30t92.5 -88t35 -141q0 -76 -33 -135t-91.5 -92.5t-133.5 -33.5zM298 61q49 0 88 23.5t62 65.5t23 99q0 54 -20 96t-58 66t-92 24q-55 0 -92.5 -25t-56.5 -67t-19 -94
q0 -66 24 -107.5t62 -61t79 -19.5z" />
    <glyph glyph-name="p" unicode="p" horiz-adv-x="628" 
d="M69 -220v716h76l8 -82q24 36 68.5 65t113.5 29q75 0 130 -34t85 -93t30 -134q0 -74 -30 -133t-85.5 -92.5t-130.5 -33.5q-61 0 -108.5 25t-72.5 70v-303h-84zM325 61q51 0 89 23.5t59.5 66t21.5 97.5q0 53 -20.5 95.5t-58.5 67t-91 24.5q-50 0 -88.5 -23.5t-60 -65.5
t-21.5 -98q0 -52 21 -94.5t59 -67.5t90 -25z" />
    <glyph glyph-name="q" unicode="q" horiz-adv-x="628" 
d="M476 -220v302q-24 -36 -69 -65t-113 -29q-76 0 -131 35t-85 94t-30 132q0 72 29.5 131t84.5 93.5t133 34.5q61 0 108 -25t73 -70l8 83h76v-716h-84zM303 61q55 0 93 25.5t57.5 68t19.5 93.5q0 54 -20 96t-58 66.5t-92 24.5q-48 0 -86 -23t-60.5 -64.5t-22.5 -99.5
t23 -100t61.5 -64.5t84.5 -22.5z" />
    <glyph glyph-name="r" unicode="r" horiz-adv-x="363" 
d="M69 0v496h76l7 -95q23 49 70 78t116 29v-88h-23q-82 0 -122 -44t-40 -126v-250h-84z" />
    <glyph glyph-name="s" unicode="s" horiz-adv-x="500" 
d="M259 -12q-59 0 -106 20.5t-75.5 58t-35.5 88.5h86q8 -39 41.5 -67.5t90.5 -28.5q53 0 78 22.5t25 53.5q0 30 -14.5 46t-42 24.5t-67.5 16.5q-42 9 -82 24.5t-66 42.5t-26 71t22 77t62.5 52t95.5 19q79 0 129.5 -39.5t58.5 -112.5h-83q-5 38 -32.5 59.5t-73.5 21.5
q-45 0 -69.5 -19t-24.5 -50q0 -20 14 -34t40.5 -24t62.5 -18q50 -10 91 -25t66 -43.5t25 -81.5q1 -44 -22.5 -79t-66 -55t-101.5 -20z" />
    <glyph glyph-name="t" unicode="t" horiz-adv-x="387" 
d="M265 0q-68 0 -107 33t-39 119v273h-86v71h86v119h84v-119h139v-71h-139v-273q0 -47 19 -63.5t67 -16.5h53v-72h-77z" />
    <glyph glyph-name="u" unicode="u" horiz-adv-x="572" 
d="M251 -12q-58 0 -101.5 23.5t-67.5 72t-24 122.5v290h84v-281q0 -77 32 -116t96 -39t106.5 46.5t42.5 132.5v257h84v-496h-76l-5 89q-24 -47 -69 -74t-102 -27z" />
    <glyph glyph-name="v" unicode="v" horiz-adv-x="521" 
d="M212 0l-188 496h88l149 -415l150 415h86l-188 -496h-97z" />
    <glyph glyph-name="w" unicode="w" horiz-adv-x="754" 
d="M169 0l-145 496h84l105 -389l116 389h95l117 -389l104 389h85l-145 -496h-86l-122 409l-122 -409h-86z" />
    <glyph glyph-name="x" unicode="x" horiz-adv-x="498" 
d="M19 0l172 248l-172 248h91l139 -205l140 205h90l-172 -248l172 -248h-90l-140 205l-139 -205h-91z" />
    <glyph glyph-name="y" unicode="y" horiz-adv-x="556" 
d="M123 -220l110 240l-213 476h91l164 -386l174 386h87l-325 -716h-88z" />
    <glyph glyph-name="z" unicode="z" horiz-adv-x="452" 
d="M35 0v69l276 357h-271v70h365v-69l-276 -357h281v-70h-375z" />
    <glyph glyph-name="braceleft" unicode="{" horiz-adv-x="425" 
d="M320 -152q-68 0 -110 37.5t-42 112.5q0 41 5.5 67t11 52.5t5.5 66.5q0 36 -21 67.5t-82 44.5v68q61 13 82 44t21 68q0 40 -5.5 66t-11 52.5t-5.5 66.5q0 76 42 113t110 37h53v-72h-38q-42 0 -63.5 -19.5t-21.5 -65.5q0 -27 3.5 -48t7.5 -42q4 -20 7 -41.5t3 -49.5
q0 -53 -26.5 -91t-84.5 -51v-2q58 -14 84.5 -52t26.5 -91q0 -27 -3 -47.5t-7 -40.5q-4 -21 -7.5 -42.5t-3.5 -50.5q0 -45 21.5 -65t63.5 -20h38v-72h-53z" />
    <glyph glyph-name="bar" unicode="|" horiz-adv-x="232" 
d="M74 -100v820h84v-820h-84z" />
    <glyph glyph-name="braceright" unicode="}" horiz-adv-x="425" 
d="M52 -152v72h38q42 0 63.5 20t21.5 65q0 20 -2 36.5t-4 31.5l-10 52t-5 61q0 53 26.5 91t84.5 52v2q-58 13 -84.5 51t-26.5 91q0 30 4 53t8 45q3 19 6 38.5t3 44.5q0 46 -21.5 65.5t-63.5 19.5h-38v72h53q68 0 110 -37t42 -113q0 -40 -5.5 -66.5t-11 -52.5t-5.5 -66
q0 -37 21 -68t82 -44v-68q-61 -13 -82 -44.5t-21 -67.5q0 -40 5.5 -66.5t11 -52.5t5.5 -67q0 -75 -42 -112.5t-110 -37.5h-53z" />
    <glyph glyph-name="asciitilde" unicode="~" horiz-adv-x="600" 
d="M383 249q-28 0 -49.5 10t-40.5 23.5t-38 23.5t-43 10q-27 0 -44.5 -18.5t-21.5 -47.5h-63q12 72 46.5 106.5t87.5 34.5q28 0 50 -10t41 -23t38.5 -23t41.5 -10q27 0 44.5 18t21.5 48h63q-11 -72 -45.5 -107t-88.5 -35z" />
    <glyph glyph-name="uni00A0" unicode="&#xa0;" horiz-adv-x="265" 
 />
    <glyph glyph-name="exclamdown" unicode="&#xa1;" horiz-adv-x="248" 
d="M77 -143l10 506h71l10 -506h-91zM125 448q-25 0 -41.5 16.5t-16.5 40.5t16.5 40.5t41.5 16.5q24 0 40.5 -16.5t16.5 -40.5t-16.5 -40.5t-40.5 -16.5z" />
    <glyph glyph-name="cent" unicode="&#xa2;" horiz-adv-x="570" 
d="M255 -104v95q-61 9 -107.5 43.5t-72.5 89.5q-13 27 -20 58t-7 66q0 70 27 125t73 89q23 17 49.5 28t57.5 15v95h81v-95q73 -9 122.5 -53.5t63.5 -112.5h-86q-10 46 -49 71.5t-91 25.5q-53 0 -89 -26t-54.5 -69t-18.5 -93q0 -64 24.5 -106t61.5 -62.5t76 -20.5
q52 0 91 25.5t49 72.5h86q-14 -66 -63 -111t-123 -55v-95h-81z" />
    <glyph glyph-name="sterling" unicode="&#xa3;" horiz-adv-x="600" 
d="M87 0v54q27 31 45.5 57.5t28 57t9.5 71.5q0 20 -3 35.5t-8 34.5h-114v59h93q-12 34 -20.5 66t-8.5 72q0 65 28 110.5t76.5 70t108.5 24.5q48 0 87 -14t67 -40.5t44 -64.5t19 -86h-77q-3 56 -36.5 95.5t-103.5 39.5q-31 0 -61.5 -13t-51 -43t-20.5 -83q0 -37 11.5 -74
t19.5 -60h192v-59h-173q6 -21 8 -34.5t2 -33.5q0 -49 -18 -92t-55 -81h365v-69h-454z" />
    <glyph glyph-name="currency" unicode="&#xa4;" horiz-adv-x="532" 
d="M103 92l-38 38l59 59q-32 46 -32 108q0 33 9 60.5t25 48.5l-61 60l38 38l61 -61q44 30 103 30t102 -30l60 61l38 -38l-60 -60q16 -21 25 -48.5t9 -60.5q0 -32 -8.5 -59t-24.5 -49l59 -59l-38 -38l-59 60q-44 -31 -104 -31q-61 0 -104 31zM266 186q27 0 48.5 12.5
t34.5 37.5t13 61q0 59 -30.5 85.5t-65.5 26.5q-37 0 -66 -26.5t-29 -85.5t29 -85t66 -26z" />
    <glyph glyph-name="yen" unicode="&#xa5;" horiz-adv-x="601" 
d="M259 0v167h-200v61h200v38l-27 52h-173v61h141l-169 321h95l175 -357l174 357h95l-168 -321h141v-61h-173l-27 -52v-38h200v-61h-200v-167h-84z" />
    <glyph glyph-name="brokenbar" unicode="&#xa6;" horiz-adv-x="232" 
d="M74 387v333h84v-333h-84zM74 -100v333h84v-333h-84z" />
    <glyph glyph-name="section" unicode="&#xa7;" horiz-adv-x="584" 
d="M289 -232q-64 0 -113.5 24t-78 68t-30.5 102h88q0 -25 13.5 -53.5t44 -48.5t79.5 -20q38 0 67 12.5t46 37.5t17 62q0 48 -26.5 71t-70.5 37q-22 8 -49 16.5t-57 18.5q-50 19 -90 43t-62.5 61.5t-22.5 95.5q0 77 56 133q-27 38 -27 92q0 61 29 103.5t79 65.5t113 23
q71 0 120.5 -26.5t75.5 -70.5t26 -97h-88q0 38 -18.5 65.5t-49.5 42t-69 14.5q-55 2 -92.5 -27.5t-37.5 -84.5q0 -44 26 -68q25 -24 71 -39q23 -7 49.5 -16t56.5 -20q26 -8 48.5 -18.5t41.5 -22.5q20 -12 35.5 -27.5t26.5 -35.5q23 -36 23 -96q0 -18 -3 -36t-11 -35
q-14 -36 -43 -62q27 -39 27 -92q2 -59 -27.5 -102.5t-79.5 -66.5t-113 -23zM422 104q30 30 30 76q0 40 -17.5 65.5t-47 42t-67.5 27.5q-10 3 -28.5 9t-39 13t-36 13t-20.5 8q-9 5 -18 9.5l-17 8.5q-30 -30 -30 -76q0 -42 19.5 -67.5t50 -40.5t63.5 -26l43.5 -14.5t44 -15.5
t39.5 -16t31 -16z" />
    <glyph glyph-name="dieresis" unicode="&#xa8;" 
d="M-88 606q-25 0 -41.5 16.5t-16.5 41.5q0 24 16.5 40t41.5 16q24 0 41 -16t17 -40q0 -25 -17 -41.5t-41 -16.5zM89 606q-25 0 -41.5 16.5t-16.5 41.5q0 24 16.5 40t41.5 16q24 0 41 -16t17 -40q0 -25 -17 -41.5t-41 -16.5z" />
    <glyph glyph-name="copyright" unicode="&#xa9;" horiz-adv-x="794" 
d="M397 -4q-103 0 -180.5 45.5t-121.5 125.5t-44 183q0 104 43.5 184t121.5 125t181 45t181.5 -45t121.5 -125q43 -79 43 -184q0 -103 -43.5 -183t-121.5 -125q-77 -46 -181 -46zM397 119q-60 0 -109 27.5t-78 79.5q-30 53 -30 125q0 73 29.5 125t78.5 80q25 14 52 20.5
t57 6.5q74 0 130 -39.5t75 -113.5h-77q-14 45 -49 68.5t-80 23.5q-58 0 -100 -43t-42 -129q0 -85 42 -128t100 -43q49 0 81 22.5t48 68.5h77q-19 -70 -75 -110.5t-130 -40.5zM397 33q94 0 163.5 40t106.5 112q37 71 37 165q0 95 -37.5 166.5t-106.5 111.5q-34 20 -75 30
t-88 10q-94 0 -162.5 -40t-106.5 -111q-38 -73 -38 -167q0 -93 37.5 -165t106.5 -112q68 -40 163 -40z" />
    <glyph glyph-name="ordfeminine" unicode="&#xaa;" horiz-adv-x="407" 
d="M165 347q-36 0 -65 12t-46 36t-17 59q0 40 21 64t55.5 35t74.5 11h93q0 53 -25 74.5t-62 21.5q-34 0 -58.5 -17t-31.5 -50h-60q3 38 25 64t55.5 39.5t69.5 13.5q39 0 66.5 -11t45 -30t26 -45t8.5 -56v-123q0 -20 9.5 -29.5t28.5 -9.5v-52h-7q-31 0 -54 15t-31 48
q-17 -30 -47.5 -50t-73.5 -20zM174 396q35 0 59 18t36 46t12 58h-88q-37 0 -66 -12.5t-29 -49.5q0 -31 22.5 -45.5t53.5 -14.5z" />
    <glyph glyph-name="guillemotleft" unicode="&#xab;" horiz-adv-x="452" 
d="M319 120l-97 175l97 175h83l-100 -175l100 -175h-83zM141 120l-97 175l97 175h83l-100 -175l100 -175h-83z" />
    <glyph glyph-name="logicalnot" unicode="&#xac;" horiz-adv-x="600" 
d="M461 223v142h-416v67h500v-209h-84z" />
    <glyph glyph-name="registered" unicode="&#xae;" horiz-adv-x="377" 
d="M189 425q-39 0 -72 19.5t-52.5 52t-19.5 71.5q0 40 19.5 72.5t52.5 52t72 19.5q40 0 72 -19.5t51.5 -52t19.5 -72.5q0 -39 -19.5 -71.5t-51.5 -52t-72 -19.5zM122 496q1 2 7 13t14 24.5t14 24l6 10.5q-29 10 -29 39q0 15 10 29.5t38 14.5h54v-155h-28v65h-18l-5 -9.5
t-12 -22t-12.5 -22.5t-5.5 -11h-33zM189 448q33 0 60.5 16.5t43.5 43.5t16 60t-16 60.5t-43.5 43.5t-60.5 16t-60 -16t-43.5 -43.5t-16.5 -60.5t16.5 -60t43.5 -43.5t60 -16.5zM189 585h19v43h-22q-25 0 -25 -21q0 -11 8 -16.5t20 -5.5z" />
    <glyph glyph-name="macron" unicode="&#xaf;" 
d="M-173 632v63h347v-63h-347z" />
    <glyph glyph-name="degree" unicode="&#xb0;" horiz-adv-x="343" 
d="M171 444q-36 0 -66 16.5t-48 46.5t-18 70t18 70.5t48 47.5t67 17q53 0 92 -36.5t39 -98.5q0 -58 -38 -95.5t-94 -37.5zM171 506q24 0 45.5 18t21.5 54t-21 54t-45 18q-25 0 -46 -18t-21 -54t20.5 -54t45.5 -18z" />
    <glyph glyph-name="plusminus" unicode="&#xb1;" horiz-adv-x="600" 
d="M263 125v141h-200v71h200v141h75v-141h200v-71h-200v-141h-75zM63 0v73h475v-73h-475z" />
    <glyph glyph-name="uni00B2" unicode="&#xb2;" horiz-adv-x="310" 
d="M33 347v47l5 5t13.5 14t20 21t24 25.5t25.5 26.5q34 35 58.5 61.5t24.5 51.5q0 23 -14.5 37.5t-38.5 14.5q-28 0 -41.5 -18.5t-13.5 -43.5h-63q2 57 35 86.5t85 29.5q59 0 86.5 -30.5t27.5 -74.5q0 -37 -24 -66t-57 -64l-68 -68h157v-55h-242z" />
    <glyph glyph-name="uni00B3" unicode="&#xb3;" horiz-adv-x="320" 
d="M161 342q-56 0 -90.5 29.5t-36.5 85.5h63q0 -26 17 -43t47 -17q29 0 46 15.5t17 46.5q0 29 -17.5 43.5t-45.5 14.5q-10 0 -19.5 -2.5t-17.5 -7.5l-36 42l108 96h-151v55h230v-53l-89 -81q50 -4 75 -35t25 -72q0 -55 -34.5 -86t-90.5 -31z" />
    <glyph glyph-name="acute" unicode="&#xb4;" 
d="M-105 553v67l210 127v-77z" />
    <glyph glyph-name="uni00B5" unicode="&#xb5;" horiz-adv-x="583" 
d="M69 -220v716h84v-281q0 -77 32 -116t96 -39t106.5 46.5t42.5 132.5v257h84v-496h-76l-5 88q-24 -46 -69.5 -73t-102.5 -27q-33 0 -60 8t-48 24v-240h-84z" />
    <glyph glyph-name="paragraph" unicode="&#xb6;" horiz-adv-x="586" 
d="M282 -100v395h-10q-82 0 -134 27t-77 73q-13 23 -19 48.5t-6 53.5q0 57 25.5 103t77.5 73q26 14 59.5 20.5t73.5 6.5h240v-800h-74v734h-82v-734h-74z" />
    <glyph glyph-name="periodcentered" unicode="&#xb7;" horiz-adv-x="195" 
d="M98 285q-25 0 -41.5 16.5t-16.5 40.5q0 25 16.5 41t41.5 16q24 0 40.5 -16t16.5 -41q0 -24 -16.5 -40.5t-40.5 -16.5z" />
    <glyph glyph-name="cedilla" unicode="&#xb8;" 
d="M-114 -259v53h92q68 0 68 48q0 45 -68 45h-49v130h56v-80q38 1 67 -9.5t45.5 -32.5t16.5 -54q0 -31 -15.5 -53.5t-42.5 -34.5t-63 -12h-107z" />
    <glyph glyph-name="uni00B9" unicode="&#xb9;" horiz-adv-x="316" 
d="M42 347v55h95v226l-92 -21v49l119 44h34v-298h83v-55h-239z" />
    <glyph glyph-name="ordmasculine" unicode="&#xba;" horiz-adv-x="433" 
d="M216 349q-48 0 -89.5 21t-66.5 61.5t-25 99.5q0 53 22.5 93.5t63.5 64t96 23.5q50 0 91 -20.5t66 -60.5t25 -100q0 -55 -24.5 -96t-65.5 -63.5t-93 -22.5zM216 404q31 0 57 14.5t42 43t16 69.5q0 62 -34 95t-81 33q-30 0 -56 -14.5t-41.5 -43t-15.5 -70.5q0 -62 33 -94.5
t80 -32.5z" />
    <glyph glyph-name="guillemotright" unicode="&#xbb;" horiz-adv-x="452" 
d="M228 120l100 175l-100 175h83l97 -175l-97 -175h-83zM50 120l100 175l-100 175h83l97 -175l-97 -175h-83z" />
    <glyph glyph-name="onequarter" unicode="&#xbc;" horiz-adv-x="759" 
d="M98 0l519 700h71l-520 -700h-70zM40 347v55h95v226l-92 -21v50l119 43h34v-298h83v-55h-239zM614 0v66h-162v51l119 236h64l-114 -231h97v91h60v-91h41v-56h-41v-66h-64z" />
    <glyph glyph-name="onehalf" unicode="&#xbd;" horiz-adv-x="765" 
d="M40 347v55h95v226l-92 -21v50l119 43h34v-298h83v-55h-239zM98 0l519 700h71l-520 -700h-70zM478 0v46l88 93q33 35 58 61.5t25 50.5t-14.5 38.5t-38.5 14.5q-28 0 -41.5 -18.5t-13.5 -43.5h-63q2 56 35 86t85 30q59 0 86.5 -31t27.5 -75q0 -37 -24 -65.5t-57 -63.5
l-68 -68h157v-55h-242z" />
    <glyph glyph-name="threequarters" unicode="&#xbe;" horiz-adv-x="758" 
d="M97 0l519 700h71l-520 -700h-70zM613 0v66h-162v51l119 236h64l-114 -231h97v91h60v-91h41v-56h-41v-66h-64zM167 342q-56 0 -90.5 29.5t-36.5 85.5h63q0 -26 17 -43t47 -17q29 0 46 15.5t17 46.5q0 29 -17.5 43.5t-45.5 14.5q-10 0 -19.5 -2.5t-17.5 -7.5l-36 42l108 96
h-151v55h230v-53l-89 -81q50 -4 75 -35t25 -72q0 -55 -34.5 -86t-90.5 -31z" />
    <glyph glyph-name="questiondown" unicode="&#xbf;" horiz-adv-x="516" 
d="M265 -164q-65 0 -115 25t-78 71t-28 109q0 74 31.5 120t86.5 67q28 11 60 16t67 5l3 103h73l4 -161h-31q-56 0 -104.5 -11t-78.5 -43q-30 -31 -30 -96q0 -62 38.5 -98t101.5 -36q64 0 101 35t37 94h80q0 -60 -27.5 -105t-76.5 -70t-114 -25zM329 439q-25 0 -41 16.5
t-16 40.5t16 40.5t41 16.5t41.5 -16.5t16.5 -40.5t-16.5 -40.5t-41.5 -16.5z" />
    <glyph glyph-name="Agrave" unicode="&#xc0;" horiz-adv-x="664" 
d="M30 0l258 700h89l257 -700h-89l-64 180h-298l-65 -180h-88zM208 248h248l-124 346zM437 741l-210 117v73l210 -127v-63z" />
    <glyph glyph-name="Aacute" unicode="&#xc1;" horiz-adv-x="664" 
d="M30 0l258 700h89l257 -700h-89l-64 180h-298l-65 -180h-88zM208 248h248l-124 346zM227 741v63l210 127v-73z" />
    <glyph glyph-name="Acircumflex" unicode="&#xc2;" horiz-adv-x="664" 
d="M30 0l258 700h89l257 -700h-89l-64 180h-298l-65 -180h-88zM208 248h248l-124 346zM195 755v66l137 81l137 -81v-66l-137 84z" />
    <glyph glyph-name="Atilde" unicode="&#xc3;" horiz-adv-x="664" 
d="M30 0l258 700h89l257 -700h-89l-64 180h-298l-65 -180h-88zM208 248h248l-124 346zM387 756q-27 0 -44 12t-32 23.5t-39 11.5q-36 0 -42 -45h-49q7 51 32 76t63 25q27 0 44 -11.5t32.5 -23.5t38.5 -12q16 0 28 11t15 34h49q-6 -49 -32 -75t-64 -26z" />
    <glyph glyph-name="Adieresis" unicode="&#xc4;" horiz-adv-x="664" 
d="M30 0l258 700h89l257 -700h-89l-64 180h-298l-65 -180h-88zM208 248h248l-124 346zM243 775q-25 0 -41.5 16.5t-16.5 41.5q0 24 16.5 40t41.5 16q24 0 41 -16t17 -40q0 -25 -17 -41.5t-41 -16.5zM420 775q-25 0 -41.5 16.5t-16.5 41.5q0 24 16.5 40t41.5 16q24 0 41 -16
t17 -40q0 -25 -17 -41.5t-41 -16.5z" />
    <glyph glyph-name="Aring" unicode="&#xc5;" horiz-adv-x="664" 
d="M30 0l258 700h89l257 -700h-89l-64 180h-298l-65 -180h-88zM208 248h248l-124 346zM332 761q-43 0 -74 27.5t-31 75.5t31 75.5t74 27.5q44 0 74.5 -27.5t30.5 -75.5t-30.5 -75.5t-74.5 -27.5zM332 804q24 0 40.5 16.5t16.5 43.5t-16.5 43t-40.5 16t-40.5 -16t-16.5 -43
t16.5 -43.5t40.5 -16.5z" />
    <glyph glyph-name="AE" unicode="&#xc6;" horiz-adv-x="911" 
d="M30 0l399 700h425v-67h-289v-227h243v-68h-243v-271h289v-67h-373v159h-269l-90 -159h-92zM250 226h231v405z" />
    <glyph glyph-name="Ccedilla" unicode="&#xc7;" horiz-adv-x="720" 
d="M381 -12q-106 0 -181 47.5t-114 129.5t-39 185q0 102 38.5 184t113.5 130t182 48q120 0 195.5 -57.5t96.5 -160.5h-93q-16 65 -65.5 104.5t-133.5 39.5q-83 0 -138 -38.5t-82.5 -103.5t-27.5 -146q0 -83 28.5 -148t83.5 -102.5t136 -37.5q84 0 133.5 38.5t65.5 102.5h93
q-21 -101 -96.5 -158t-195.5 -57zM309 -259v53h92q68 0 68 48q0 45 -68 45h-49v130h56v-80q38 1 67 -9.5t45.5 -32.5t16.5 -54q0 -31 -15.5 -53.5t-42.5 -34.5t-63 -12h-107z" />
    <glyph glyph-name="Egrave" unicode="&#xc8;" horiz-adv-x="564" 
d="M74 0v700h433v-69h-349v-227h305v-68h-305v-267h349v-69h-433zM387 741l-210 117v73l210 -127v-63z" />
    <glyph glyph-name="Eacute" unicode="&#xc9;" horiz-adv-x="564" 
d="M74 0v700h433v-69h-349v-227h305v-68h-305v-267h349v-69h-433zM177 741v63l210 127v-73z" />
    <glyph glyph-name="Ecircumflex" unicode="&#xca;" horiz-adv-x="564" 
d="M74 0v700h433v-69h-349v-227h305v-68h-305v-267h349v-69h-433zM145 755v66l137 81l137 -81v-66l-137 84z" />
    <glyph glyph-name="Edieresis" unicode="&#xcb;" horiz-adv-x="564" 
d="M74 0v700h433v-69h-349v-227h305v-68h-305v-267h349v-69h-433zM193 775q-25 0 -41.5 16.5t-16.5 41.5q0 24 16.5 40t41.5 16q24 0 41 -16t17 -40q0 -25 -17 -41.5t-41 -16.5zM370 775q-25 0 -41.5 16.5t-16.5 41.5q0 24 16.5 40t41.5 16q24 0 41 -16t17 -40
q0 -25 -17 -41.5t-41 -16.5z" />
    <glyph glyph-name="Igrave" unicode="&#xcc;" horiz-adv-x="232" 
d="M74 0v700h84v-700h-84zM221 741l-210 117v73l210 -127v-63z" />
    <glyph glyph-name="Iacute" unicode="&#xcd;" horiz-adv-x="232" 
d="M74 0v700h84v-700h-84zM11 741v63l210 127v-73z" />
    <glyph glyph-name="Icircumflex" unicode="&#xce;" horiz-adv-x="232" 
d="M74 0v700h84v-700h-84zM-21 755v66l137 81l137 -81v-66l-137 84z" />
    <glyph glyph-name="Idieresis" unicode="&#xcf;" horiz-adv-x="232" 
d="M74 0v700h84v-700h-84zM27 775q-25 0 -41.5 16.5t-16.5 41.5q0 24 16.5 40t41.5 16q24 0 41 -16t17 -40q0 -25 -17 -41.5t-41 -16.5zM204 775q-25 0 -41.5 16.5t-16.5 41.5q0 24 16.5 40t41.5 16q24 0 41 -16t17 -40q0 -25 -17 -41.5t-41 -16.5z" />
    <glyph glyph-name="Eth" unicode="&#xd0;" horiz-adv-x="717" 
d="M95 0v311h-87v76h87v313h215q124 0 203.5 -42.5t118 -121t38.5 -188.5q0 -108 -38.5 -186t-118 -120t-203.5 -42h-215zM179 70h130q106 0 165.5 35.5t84.5 98t25 144.5q0 143 -66 212.5t-209 69.5h-130v-243h202v-76h-202v-241z" />
    <glyph glyph-name="Ntilde" unicode="&#xd1;" horiz-adv-x="689" 
d="M74 0v700h84l373 -561v561h84v-700h-84l-373 561v-561h-84zM400 756q-27 0 -44 12t-32 23.5t-39 11.5q-36 0 -42 -45h-49q7 51 32 76t63 25q27 0 44 -11.5t32.5 -23.5t38.5 -12q16 0 28 11t15 34h49q-6 -49 -32 -75t-64 -26z" />
    <glyph glyph-name="Ograve" unicode="&#xd2;" horiz-adv-x="784" 
d="M392 -12q-80 0 -144 27.5t-109 76.5t-68.5 115t-23.5 143t23.5 143t68.5 115t108.5 76.5t144.5 27.5q80 0 143.5 -26.5t108.5 -75t69 -115t24 -145.5t-24 -145.5t-69 -115t-108.5 -75t-143.5 -26.5zM392 62q82 0 140 37t88.5 102t30.5 149q0 86 -30.5 150.5t-88.5 100.5
t-140 36q-81 0 -139 -37t-89 -101.5t-31 -148.5q0 -83 31 -148.5t89 -102.5t139 -37zM497 741l-210 117v73l210 -127v-63z" />
    <glyph glyph-name="Oacute" unicode="&#xd3;" horiz-adv-x="784" 
d="M392 -12q-80 0 -144 27.5t-109 76.5t-68.5 115t-23.5 143t23.5 143t68.5 115t108.5 76.5t144.5 27.5q80 0 143.5 -26.5t108.5 -75t69 -115t24 -145.5t-24 -145.5t-69 -115t-108.5 -75t-143.5 -26.5zM392 62q82 0 140 37t88.5 102t30.5 149q0 86 -30.5 150.5t-88.5 100.5
t-140 36q-81 0 -139 -37t-89 -101.5t-31 -148.5q0 -83 31 -148.5t89 -102.5t139 -37zM287 741v63l210 127v-73z" />
    <glyph glyph-name="Ocircumflex" unicode="&#xd4;" horiz-adv-x="784" 
d="M392 -12q-80 0 -144 27.5t-109 76.5t-68.5 115t-23.5 143t23.5 143t68.5 115t108.5 76.5t144.5 27.5q80 0 143.5 -26.5t108.5 -75t69 -115t24 -145.5t-24 -145.5t-69 -115t-108.5 -75t-143.5 -26.5zM392 62q82 0 140 37t88.5 102t30.5 149q0 86 -30.5 150.5t-88.5 100.5
t-140 36q-81 0 -139 -37t-89 -101.5t-31 -148.5q0 -83 31 -148.5t89 -102.5t139 -37zM255 755v66l137 81l137 -81v-66l-137 84z" />
    <glyph glyph-name="Otilde" unicode="&#xd5;" horiz-adv-x="784" 
d="M392 -12q-80 0 -144 27.5t-109 76.5t-68.5 115t-23.5 143t23.5 143t68.5 115t108.5 76.5t144.5 27.5q80 0 143.5 -26.5t108.5 -75t69 -115t24 -145.5t-24 -145.5t-69 -115t-108.5 -75t-143.5 -26.5zM392 62q82 0 140 37t88.5 102t30.5 149q0 86 -30.5 150.5t-88.5 100.5
t-140 36q-81 0 -139 -37t-89 -101.5t-31 -148.5q0 -83 31 -148.5t89 -102.5t139 -37zM447 756q-27 0 -44 12t-32 23.5t-39 11.5q-36 0 -42 -45h-49q7 51 32 76t63 25q27 0 44 -11.5t32.5 -23.5t38.5 -12q16 0 28 11t15 34h49q-6 -49 -32 -75t-64 -26z" />
    <glyph glyph-name="Odieresis" unicode="&#xd6;" horiz-adv-x="784" 
d="M392 -12q-80 0 -144 27.5t-109 76.5t-68.5 115t-23.5 143t23.5 143t68.5 115t108.5 76.5t144.5 27.5q80 0 143.5 -26.5t108.5 -75t69 -115t24 -145.5t-24 -145.5t-69 -115t-108.5 -75t-143.5 -26.5zM392 62q82 0 140 37t88.5 102t30.5 149q0 86 -30.5 150.5t-88.5 100.5
t-140 36q-81 0 -139 -37t-89 -101.5t-31 -148.5q0 -83 31 -148.5t89 -102.5t139 -37zM303 775q-25 0 -41.5 16.5t-16.5 41.5q0 24 16.5 40t41.5 16q24 0 41 -16t17 -40q0 -25 -17 -41.5t-41 -16.5zM480 775q-25 0 -41.5 16.5t-16.5 41.5q0 24 16.5 40t41.5 16q24 0 41 -16
t17 -40q0 -25 -17 -41.5t-41 -16.5z" />
    <glyph glyph-name="multiply" unicode="&#xd7;" horiz-adv-x="600" 
d="M166 106l-50 50l134 135l-129 129l51 50l129 -129l134 135l50 -50l-134 -135l129 -129l-51 -50l-129 129z" />
    <glyph glyph-name="Oslash" unicode="&#xd8;" horiz-adv-x="786" 
d="M392 -12q-63 0 -117 17.5t-96 50.5l-50 -56h-90l91 102q-40 47 -61.5 110t-21.5 138q0 103 41.5 184.5t119 129.5t184.5 48q64 0 118.5 -18t96.5 -51l51 57h89l-92 -104q39 -47 60.5 -109.5t21.5 -136.5q0 -105 -42 -187t-119 -128.5t-184 -46.5zM392 62q82 0 140 37
t88.5 102t30.5 149q0 56 -13 102.5t-37 81.5l-370 -419q65 -53 161 -53zM184 164l371 420q-67 53 -163 53q-81 0 -139 -37t-89 -101.5t-31 -148.5q0 -57 13.5 -103.5t37.5 -82.5z" />
    <glyph glyph-name="Ugrave" unicode="&#xd9;" horiz-adv-x="656" 
d="M327 -12q-92 0 -149 37.5t-83.5 99t-26.5 133.5v442h84v-443q0 -102 49 -148t128 -46t127 46t48 148v443h84v-442q0 -77 -23 -129t-61.5 -83t-84.5 -44.5t-92 -13.5zM433 741l-210 117v73l210 -127v-63z" />
    <glyph glyph-name="Uacute" unicode="&#xda;" horiz-adv-x="656" 
d="M327 -12q-92 0 -149 37.5t-83.5 99t-26.5 133.5v442h84v-443q0 -102 49 -148t128 -46t127 46t48 148v443h84v-442q0 -77 -23 -129t-61.5 -83t-84.5 -44.5t-92 -13.5zM223 741v63l210 127v-73z" />
    <glyph glyph-name="Ucircumflex" unicode="&#xdb;" horiz-adv-x="656" 
d="M327 -12q-92 0 -149 37.5t-83.5 99t-26.5 133.5v442h84v-443q0 -102 49 -148t128 -46t127 46t48 148v443h84v-442q0 -77 -23 -129t-61.5 -83t-84.5 -44.5t-92 -13.5zM191 755v66l137 81l137 -81v-66l-137 84z" />
    <glyph glyph-name="Udieresis" unicode="&#xdc;" horiz-adv-x="656" 
d="M327 -12q-92 0 -149 37.5t-83.5 99t-26.5 133.5v442h84v-443q0 -102 49 -148t128 -46t127 46t48 148v443h84v-442q0 -77 -23 -129t-61.5 -83t-84.5 -44.5t-92 -13.5zM239 775q-25 0 -41.5 16.5t-16.5 41.5q0 24 16.5 40t41.5 16q24 0 41 -16t17 -40q0 -25 -17 -41.5
t-41 -16.5zM416 775q-25 0 -41.5 16.5t-16.5 41.5q0 24 16.5 40t41.5 16q24 0 41 -16t17 -40q0 -25 -17 -41.5t-41 -16.5z" />
    <glyph glyph-name="Yacute" unicode="&#xdd;" horiz-adv-x="579" 
d="M248 0v266l-228 434h95l175 -354l175 354h94l-227 -434v-266h-84zM185 741v63l210 127v-73z" />
    <glyph glyph-name="Thorn" unicode="&#xde;" horiz-adv-x="579" 
d="M74 0v700h84v-146h146q82 0 135.5 -26t78.5 -73q25 -46 25 -105q0 -57 -25 -103t-78 -73q-52 -27 -136 -27h-146v-147h-84zM158 217h144q84 0 119.5 36t35.5 97q0 64 -35.5 99t-119.5 35h-144v-267z" />
    <glyph glyph-name="germandbls" unicode="&#xdf;" horiz-adv-x="664" 
d="M441 -10q-83 0 -139 47t-64 132h83q4 -46 33 -79.5t86 -33.5q44 0 72.5 22t28.5 66q0 31 -13.5 50t-37 31t-52.5 21q-35 12 -69 28t-56.5 40t-22.5 61q0 32 15.5 51t34.5 32q11 7 21.5 14t21.5 14q23 14 36 32t13 44q0 53 -39.5 76t-92.5 23q-54 0 -86 -20t-46 -53.5
t-14 -75.5v-512h-83v520q0 69 29 116t81 71.5t121 24.5q58 0 106.5 -18.5t78 -55t29.5 -89.5q0 -35 -14.5 -58.5t-35.5 -38.5t-41 -27q-16 -10 -33 -23.5t-17 -35.5t20 -37t46.5 -25t47.5 -17q62 -22 99.5 -56.5t37.5 -100.5q0 -52 -24.5 -87.5t-66.5 -54t-94 -18.5z" />
    <glyph glyph-name="agrave" unicode="&#xe0;" horiz-adv-x="571" 
d="M234 -12q-51 0 -93 17t-66.5 51.5t-24.5 84.5q0 58 30 92.5t79.5 50t106.5 15.5h134q0 52 -17.5 82t-45.5 43t-62 13q-49 0 -84.5 -23.5t-44.5 -72.5h-86q5 54 36 91t78.5 56.5t100.5 19.5q75 0 121 -27.5t67 -73.5t21 -102v-152q0 -37 9 -56t46 -23v-74q-33 0 -60 8.5
t-45.5 28t-26.5 51.5q-25 -42 -68.5 -71t-104.5 -29zM247 59q50 0 84 25.5t51.5 65.5t17.5 83v1h-127q-35 0 -66 -7.5t-50 -27t-19 -54.5q0 -45 32 -65.5t77 -20.5zM380 557l-210 117v73l210 -127v-63z" />
    <glyph glyph-name="aacute" unicode="&#xe1;" horiz-adv-x="571" 
d="M234 -12q-51 0 -93 17t-66.5 51.5t-24.5 84.5q0 58 30 92.5t79.5 50t106.5 15.5h134q0 52 -17.5 82t-45.5 43t-62 13q-49 0 -84.5 -23.5t-44.5 -72.5h-86q5 54 36 91t78.5 56.5t100.5 19.5q75 0 121 -27.5t67 -73.5t21 -102v-152q0 -37 9 -56t46 -23v-74q-33 0 -60 8.5
t-45.5 28t-26.5 51.5q-25 -42 -68.5 -71t-104.5 -29zM247 59q50 0 84 25.5t51.5 65.5t17.5 83v1h-127q-35 0 -66 -7.5t-50 -27t-19 -54.5q0 -45 32 -65.5t77 -20.5zM170 553v67l210 127v-77z" />
    <glyph glyph-name="acircumflex" unicode="&#xe2;" horiz-adv-x="571" 
d="M234 -12q-51 0 -93 17t-66.5 51.5t-24.5 84.5q0 58 30 92.5t79.5 50t106.5 15.5h134q0 52 -17.5 82t-45.5 43t-62 13q-49 0 -84.5 -23.5t-44.5 -72.5h-86q5 54 36 91t78.5 56.5t100.5 19.5q75 0 121 -27.5t67 -73.5t21 -102v-152q0 -37 9 -56t46 -23v-74q-33 0 -60 8.5
t-45.5 28t-26.5 51.5q-25 -42 -68.5 -71t-104.5 -29zM247 59q50 0 84 25.5t51.5 65.5t17.5 83v1h-127q-35 0 -66 -7.5t-50 -27t-19 -54.5q0 -45 32 -65.5t77 -20.5zM138 582v70l137 81l137 -81v-70l-137 84z" />
    <glyph glyph-name="atilde" unicode="&#xe3;" horiz-adv-x="571" 
d="M234 -12q-51 0 -93 17t-66.5 51.5t-24.5 84.5q0 58 30 92.5t79.5 50t106.5 15.5h134q0 52 -17.5 82t-45.5 43t-62 13q-49 0 -84.5 -23.5t-44.5 -72.5h-86q5 54 36 91t78.5 56.5t100.5 19.5q75 0 121 -27.5t67 -73.5t21 -102v-152q0 -37 9 -56t46 -23v-74q-33 0 -60 8.5
t-45.5 28t-26.5 51.5q-25 -42 -68.5 -71t-104.5 -29zM247 59q50 0 84 25.5t51.5 65.5t17.5 83v1h-127q-35 0 -66 -7.5t-50 -27t-19 -54.5q0 -45 32 -65.5t77 -20.5zM330 602q-27 0 -44 11t-32 21.5t-39 10.5q-18 0 -28.5 -9t-13.5 -32h-49q7 51 32 76t63 25q27 0 44 -10.5
t32.5 -21.5t38.5 -11q16 0 28 9t15 32h49q-6 -49 -32 -75t-64 -26z" />
    <glyph glyph-name="adieresis" unicode="&#xe4;" horiz-adv-x="571" 
d="M234 -12q-51 0 -93 17t-66.5 51.5t-24.5 84.5q0 58 30 92.5t79.5 50t106.5 15.5h134q0 52 -17.5 82t-45.5 43t-62 13q-49 0 -84.5 -23.5t-44.5 -72.5h-86q5 54 36 91t78.5 56.5t100.5 19.5q75 0 121 -27.5t67 -73.5t21 -102v-152q0 -37 9 -56t46 -23v-74q-33 0 -60 8.5
t-45.5 28t-26.5 51.5q-25 -42 -68.5 -71t-104.5 -29zM247 59q50 0 84 25.5t51.5 65.5t17.5 83v1h-127q-35 0 -66 -7.5t-50 -27t-19 -54.5q0 -45 32 -65.5t77 -20.5zM186 606q-25 0 -41.5 16.5t-16.5 41.5q0 24 16.5 40t41.5 16q24 0 41 -16t17 -40q0 -25 -17 -41.5
t-41 -16.5zM363 606q-25 0 -41.5 16.5t-16.5 41.5q0 24 16.5 40t41.5 16q24 0 41 -16t17 -40q0 -25 -17 -41.5t-41 -16.5z" />
    <glyph glyph-name="aring" unicode="&#xe5;" horiz-adv-x="571" 
d="M234 -12q-51 0 -93 17t-66.5 51.5t-24.5 84.5q0 58 30 92.5t79.5 50t106.5 15.5h134q0 52 -17.5 82t-45.5 43t-62 13q-49 0 -84.5 -23.5t-44.5 -72.5h-86q5 54 36 91t78.5 56.5t100.5 19.5q75 0 121 -27.5t67 -73.5t21 -102v-152q0 -37 9 -56t46 -23v-74q-33 0 -60 8.5
t-45.5 28t-26.5 51.5q-25 -42 -68.5 -71t-104.5 -29zM247 59q50 0 84 25.5t51.5 65.5t17.5 83v1h-127q-35 0 -66 -7.5t-50 -27t-19 -54.5q0 -45 32 -65.5t77 -20.5zM275 557q-43 0 -74 27.5t-31 75.5t31 75.5t74 27.5q44 0 74.5 -27.5t30.5 -75.5t-30.5 -75.5t-74.5 -27.5z
M275 600q24 0 40.5 16.5t16.5 43.5t-16.5 43t-40.5 16t-40.5 -16t-16.5 -43t16.5 -43.5t40.5 -16.5z" />
    <glyph glyph-name="ae" unicode="&#xe6;" horiz-adv-x="913" 
d="M237 -12q-55 0 -97.5 18.5t-66 53t-23.5 81.5q0 51 26 85.5t73.5 52.5t111.5 18h138q0 71 -34.5 105.5t-87.5 34.5q-45 0 -79.5 -24.5t-42.5 -71.5h-87q6 56 38 93t77.5 55.5t93.5 18.5q63 0 108.5 -24t69.5 -67q32 44 80.5 67.5t106.5 23.5q70 0 121 -31.5t79.5 -83.5
t28.5 -115q0 -10 -0.5 -21t-1.5 -25h-385q2 -52 23 -91t56 -60.5t77 -21.5q52 0 85.5 24t50.5 65h83q-14 -46 -44 -82t-74 -57t-100 -21q-66 0 -120 31.5t-85 86.5q-29 -50 -78.5 -84t-120.5 -34zM243 59q40 0 73.5 21t55.5 56t26 76v20h-129q-71 0 -101 -24t-30 -62
q0 -39 28 -63t77 -24zM485 297h303q-4 66 -46 103t-100 37t-103.5 -36t-53.5 -104z" />
    <glyph glyph-name="ccedilla" unicode="&#xe7;" horiz-adv-x="570" 
d="M297 -12q-70 0 -126.5 32t-89.5 90.5t-33 137.5q0 77 32 135.5t88 91.5t129 33q88 0 148.5 -46t76.5 -123h-86q-10 46 -49 71.5t-91 25.5q-53 0 -89 -26t-54.5 -69t-18.5 -93q0 -55 21 -98t57.5 -67t83.5 -24q52 0 91 25.5t49 72.5h86q-10 -50 -41 -88t-78 -59.5
t-106 -21.5zM222 -259v53h92q68 0 68 48q0 45 -68 45h-49v130h56v-80q38 1 67 -9.5t45.5 -32.5t16.5 -54q0 -31 -15.5 -53.5t-42.5 -34.5t-63 -12h-107z" />
    <glyph glyph-name="egrave" unicode="&#xe8;" horiz-adv-x="569" 
d="M292 -12q-69 0 -124.5 32t-87.5 90.5t-32 137.5q0 78 30.5 136.5t86 91t129.5 32.5q70 0 122 -31t81.5 -83.5t29.5 -117.5v-22t-1 -25h-395q3 -49 23.5 -87.5t56 -60.5t81.5 -22q52 0 87 24t51 65h83q-13 -46 -43 -82t-74.5 -57t-103.5 -21zM132 294h312q-3 67 -46 105
t-106 38q-60 0 -106.5 -36.5t-53.5 -106.5zM394 557l-210 117v73l210 -127v-63z" />
    <glyph glyph-name="eacute" unicode="&#xe9;" horiz-adv-x="569" 
d="M292 -12q-69 0 -124.5 32t-87.5 90.5t-32 137.5q0 78 30.5 136.5t86 91t129.5 32.5q70 0 122 -31t81.5 -83.5t29.5 -117.5v-22t-1 -25h-395q3 -49 23.5 -87.5t56 -60.5t81.5 -22q52 0 87 24t51 65h83q-13 -46 -43 -82t-74.5 -57t-103.5 -21zM132 294h312q-3 67 -46 105
t-106 38q-60 0 -106.5 -36.5t-53.5 -106.5zM184 553v67l210 127v-77z" />
    <glyph glyph-name="ecircumflex" unicode="&#xea;" horiz-adv-x="569" 
d="M292 -12q-69 0 -124.5 32t-87.5 90.5t-32 137.5q0 78 30.5 136.5t86 91t129.5 32.5q70 0 122 -31t81.5 -83.5t29.5 -117.5v-22t-1 -25h-395q3 -49 23.5 -87.5t56 -60.5t81.5 -22q52 0 87 24t51 65h83q-13 -46 -43 -82t-74.5 -57t-103.5 -21zM132 294h312q-3 67 -46 105
t-106 38q-60 0 -106.5 -36.5t-53.5 -106.5zM152 582v70l137 81l137 -81v-70l-137 84z" />
    <glyph glyph-name="edieresis" unicode="&#xeb;" horiz-adv-x="569" 
d="M292 -12q-69 0 -124.5 32t-87.5 90.5t-32 137.5q0 78 30.5 136.5t86 91t129.5 32.5q70 0 122 -31t81.5 -83.5t29.5 -117.5v-22t-1 -25h-395q3 -49 23.5 -87.5t56 -60.5t81.5 -22q52 0 87 24t51 65h83q-13 -46 -43 -82t-74.5 -57t-103.5 -21zM132 294h312q-3 67 -46 105
t-106 38q-60 0 -106.5 -36.5t-53.5 -106.5zM200 606q-25 0 -41.5 16.5t-16.5 41.5q0 24 16.5 40t41.5 16q24 0 41 -16t17 -40q0 -25 -17 -41.5t-41 -16.5zM377 606q-25 0 -41.5 16.5t-16.5 41.5q0 24 16.5 40t41.5 16q24 0 41 -16t17 -40q0 -25 -17 -41.5t-41 -16.5z" />
    <glyph glyph-name="igrave" unicode="&#xec;" horiz-adv-x="222" 
d="M69 0v496h84v-496h-84zM216 557l-210 117v73l210 -127v-63z" />
    <glyph glyph-name="iacute" unicode="&#xed;" horiz-adv-x="222" 
d="M69 0v496h84v-496h-84zM6 553v67l210 127v-77z" />
    <glyph glyph-name="icircumflex" unicode="&#xee;" horiz-adv-x="222" 
d="M69 0v496h84v-496h-84zM-26 582v70l137 81l137 -81v-70l-137 84z" />
    <glyph glyph-name="idieresis" unicode="&#xef;" horiz-adv-x="222" 
d="M69 0v496h84v-496h-84zM32 606q-25 0 -41.5 16.5t-16.5 41.5q0 24 16.5 40t41.5 16q24 0 41 -16t17 -40q0 -25 -17 -41.5t-41 -16.5zM189 606q-25 0 -41.5 16.5t-16.5 41.5q0 24 16.5 40t41.5 16q24 0 41 -16t17 -40q0 -25 -17 -41.5t-41 -16.5z" />
    <glyph glyph-name="eth" unicode="&#xf0;" horiz-adv-x="626" 
d="M311 -12q-77 0 -136 35.5t-93 93.5q-17 29 -25.5 61.5t-8.5 68.5q0 75 34.5 134t92.5 93q59 33 130 33q49 0 96.5 -18t81.5 -60q-16 44 -39.5 86t-57.5 83l-134 -47v57l95 33q-14 15 -30.5 30t-33.5 29h84q11 -9 21 -18t20 -19l131 45v-57l-90 -32q65 -76 97 -162.5
t32 -184.5q0 -84 -35.5 -148t-95.5 -100q-61 -36 -136 -36zM313 59q55 0 95 26t62 69.5t22 93.5q0 60 -26 102t-66.5 64t-86.5 22q-54 0 -94.5 -26t-62.5 -68.5t-22 -93.5q0 -59 25.5 -101.5t66.5 -65t87 -22.5z" />
    <glyph glyph-name="ntilde" unicode="&#xf1;" horiz-adv-x="573" 
d="M69 0v496h76l5 -89q24 47 69 74t102 27q88 0 140.5 -53.5t52.5 -164.5v-290h-84v281q0 77 -32 116t-96 39t-106.5 -46.5t-42.5 -132.5v-257h-84zM361 602q-27 0 -44 11t-32 21.5t-39 10.5q-18 0 -28.5 -9t-13.5 -32h-49q7 51 32 76t63 25q27 0 44 -10.5t32.5 -21.5
t38.5 -11q16 0 28 9t15 32h49q-6 -49 -32 -75t-64 -26z" />
    <glyph glyph-name="ograve" unicode="&#xf2;" horiz-adv-x="604" 
d="M298 -12q-68 0 -125 30.5t-91 89t-34 141.5q0 79 33.5 137t91 90t129.5 32q69 0 126.5 -30t92.5 -88t35 -141q0 -76 -33 -135t-91.5 -92.5t-133.5 -33.5zM298 61q49 0 88 23.5t62 65.5t23 99q0 54 -20 96t-58 66t-92 24q-55 0 -92.5 -25t-56.5 -67t-19 -94
q0 -66 24 -107.5t62 -61t79 -19.5zM407 557l-210 117v73l210 -127v-63z" />
    <glyph glyph-name="oacute" unicode="&#xf3;" horiz-adv-x="604" 
d="M298 -12q-68 0 -125 30.5t-91 89t-34 141.5q0 79 33.5 137t91 90t129.5 32q69 0 126.5 -30t92.5 -88t35 -141q0 -76 -33 -135t-91.5 -92.5t-133.5 -33.5zM298 61q49 0 88 23.5t62 65.5t23 99q0 54 -20 96t-58 66t-92 24q-55 0 -92.5 -25t-56.5 -67t-19 -94
q0 -66 24 -107.5t62 -61t79 -19.5zM197 553v67l210 127v-77z" />
    <glyph glyph-name="ocircumflex" unicode="&#xf4;" horiz-adv-x="604" 
d="M298 -12q-68 0 -125 30.5t-91 89t-34 141.5q0 79 33.5 137t91 90t129.5 32q69 0 126.5 -30t92.5 -88t35 -141q0 -76 -33 -135t-91.5 -92.5t-133.5 -33.5zM298 61q49 0 88 23.5t62 65.5t23 99q0 54 -20 96t-58 66t-92 24q-55 0 -92.5 -25t-56.5 -67t-19 -94
q0 -66 24 -107.5t62 -61t79 -19.5zM165 582v70l137 81l137 -81v-70l-137 84z" />
    <glyph glyph-name="otilde" unicode="&#xf5;" horiz-adv-x="604" 
d="M298 -12q-68 0 -125 30.5t-91 89t-34 141.5q0 79 33.5 137t91 90t129.5 32q69 0 126.5 -30t92.5 -88t35 -141q0 -76 -33 -135t-91.5 -92.5t-133.5 -33.5zM298 61q49 0 88 23.5t62 65.5t23 99q0 54 -20 96t-58 66t-92 24q-55 0 -92.5 -25t-56.5 -67t-19 -94
q0 -66 24 -107.5t62 -61t79 -19.5zM357 602q-27 0 -44 11t-32 21.5t-39 10.5q-18 0 -28.5 -9t-13.5 -32h-49q7 51 32 76t63 25q27 0 44 -10.5t32.5 -21.5t38.5 -11q16 0 28 9t15 32h49q-6 -49 -32 -75t-64 -26z" />
    <glyph glyph-name="odieresis" unicode="&#xf6;" horiz-adv-x="604" 
d="M298 -12q-68 0 -125 30.5t-91 89t-34 141.5q0 79 33.5 137t91 90t129.5 32q69 0 126.5 -30t92.5 -88t35 -141q0 -76 -33 -135t-91.5 -92.5t-133.5 -33.5zM298 61q49 0 88 23.5t62 65.5t23 99q0 54 -20 96t-58 66t-92 24q-55 0 -92.5 -25t-56.5 -67t-19 -94
q0 -66 24 -107.5t62 -61t79 -19.5zM213 606q-25 0 -41.5 16.5t-16.5 41.5q0 24 16.5 40t41.5 16q24 0 41 -16t17 -40q0 -25 -17 -41.5t-41 -16.5zM390 606q-25 0 -41.5 16.5t-16.5 41.5q0 24 16.5 40t41.5 16q24 0 41 -16t17 -40q0 -25 -17 -41.5t-41 -16.5z" />
    <glyph glyph-name="divide" unicode="&#xf7;" horiz-adv-x="600" 
d="M101 255v71h398v-71h-398zM300 89q-25 0 -41.5 16.5t-16.5 40.5t16.5 40.5t41.5 16.5q24 0 40.5 -16.5t16.5 -40.5t-16.5 -40.5t-40.5 -16.5zM300 378q-25 0 -41.5 17t-16.5 41t16.5 40.5t41.5 16.5q24 0 40.5 -16.5t16.5 -40.5t-16.5 -41t-40.5 -17z" />
    <glyph glyph-name="oslash" unicode="&#xf8;" horiz-adv-x="601" 
d="M302 -12q-83 0 -146 45l-28 -33h-80l64 74q-27 33 -42 77t-15 97q0 79 33 137.5t89.5 90.5t126.5 32q41 0 78 -11t68 -34l29 33h79l-65 -74q27 -33 42.5 -77t15.5 -97q0 -77 -32 -135.5t-88 -91.5t-129 -33zM302 58q53 0 89.5 25.5t56 69t19.5 95.5q0 34 -7.5 62
t-19.5 50l-235 -270q43 -32 97 -32zM166 136l234 270q-41 32 -96 32t-92 -26t-55 -69t-18 -95q0 -34 7 -62t20 -50z" />
    <glyph glyph-name="ugrave" unicode="&#xf9;" horiz-adv-x="572" 
d="M251 -12q-58 0 -101.5 23.5t-67.5 72t-24 122.5v290h84v-281q0 -77 32 -116t96 -39t106.5 46.5t42.5 132.5v257h84v-496h-76l-5 89q-24 -47 -69 -74t-102 -27zM389 557l-210 117v73l210 -127v-63z" />
    <glyph glyph-name="uacute" unicode="&#xfa;" horiz-adv-x="572" 
d="M251 -12q-58 0 -101.5 23.5t-67.5 72t-24 122.5v290h84v-281q0 -77 32 -116t96 -39t106.5 46.5t42.5 132.5v257h84v-496h-76l-5 89q-24 -47 -69 -74t-102 -27zM179 553v67l210 127v-77z" />
    <glyph glyph-name="ucircumflex" unicode="&#xfb;" horiz-adv-x="572" 
d="M251 -12q-58 0 -101.5 23.5t-67.5 72t-24 122.5v290h84v-281q0 -77 32 -116t96 -39t106.5 46.5t42.5 132.5v257h84v-496h-76l-5 89q-24 -47 -69 -74t-102 -27zM147 582v70l137 81l137 -81v-70l-137 84z" />
    <glyph glyph-name="udieresis" unicode="&#xfc;" horiz-adv-x="572" 
d="M251 -12q-58 0 -101.5 23.5t-67.5 72t-24 122.5v290h84v-281q0 -77 32 -116t96 -39t106.5 46.5t42.5 132.5v257h84v-496h-76l-5 89q-24 -47 -69 -74t-102 -27zM195 606q-25 0 -41.5 16.5t-16.5 41.5q0 24 16.5 40t41.5 16q24 0 41 -16t17 -40q0 -25 -17 -41.5t-41 -16.5z
M372 606q-25 0 -41.5 16.5t-16.5 41.5q0 24 16.5 40t41.5 16q24 0 41 -16t17 -40q0 -25 -17 -41.5t-41 -16.5z" />
    <glyph glyph-name="yacute" unicode="&#xfd;" horiz-adv-x="556" 
d="M123 -220l110 240l-213 476h91l164 -386l174 386h87l-325 -716h-88zM173 553v67l210 127v-77z" />
    <glyph glyph-name="thorn" unicode="&#xfe;" horiz-adv-x="628" 
d="M69 -220v920h84v-286q24 36 68.5 65t113.5 29q75 0 130 -34t85 -93t30 -134q0 -74 -30 -133t-85.5 -92.5t-130.5 -33.5q-61 0 -108.5 25t-72.5 70v-303h-84zM325 61q51 0 89 23.5t59.5 66t21.5 97.5q0 53 -20.5 95.5t-58.5 67t-91 24.5q-50 0 -88.5 -23.5t-60 -65.5
t-21.5 -98q0 -52 21 -94.5t59 -67.5t90 -25z" />
    <glyph glyph-name="ydieresis" unicode="&#xff;" horiz-adv-x="556" 
d="M123 -220l110 240l-213 476h91l164 -386l174 386h87l-325 -716h-88zM189 606q-25 0 -41.5 16.5t-16.5 41.5q0 24 16.5 40t41.5 16q24 0 41 -16t17 -40q0 -25 -17 -41.5t-41 -16.5zM366 606q-25 0 -41.5 16.5t-16.5 41.5q0 24 16.5 40t41.5 16q24 0 41 -16t17 -40
q0 -25 -17 -41.5t-41 -16.5z" />
    <glyph glyph-name="Amacron" unicode="&#x100;" horiz-adv-x="664" 
d="M30 0l258 700h89l257 -700h-89l-64 180h-298l-65 -180h-88zM208 248h248l-124 346zM158 796v63h347v-63h-347z" />
    <glyph glyph-name="amacron" unicode="&#x101;" horiz-adv-x="571" 
d="M234 -12q-51 0 -93 17t-66.5 51.5t-24.5 84.5q0 58 30 92.5t79.5 50t106.5 15.5h134q0 52 -17.5 82t-45.5 43t-62 13q-49 0 -84.5 -23.5t-44.5 -72.5h-86q5 54 36 91t78.5 56.5t100.5 19.5q75 0 121 -27.5t67 -73.5t21 -102v-152q0 -37 9 -56t46 -23v-74q-33 0 -60 8.5
t-45.5 28t-26.5 51.5q-25 -42 -68.5 -71t-104.5 -29zM247 59q50 0 84 25.5t51.5 65.5t17.5 83v1h-127q-35 0 -66 -7.5t-50 -27t-19 -54.5q0 -45 32 -65.5t77 -20.5zM101 632v63h347v-63h-347z" />
    <glyph glyph-name="Abreve" unicode="&#x102;" horiz-adv-x="664" 
d="M30 0l258 700h89l257 -700h-89l-64 180h-298l-65 -180h-88zM208 248h248l-124 346zM331 757q-69 0 -104.5 37.5t-35.5 92.5v14h50q0 -37 21 -57.5t69 -20.5t69 20.5t21 57.5h51v-14q0 -55 -36.5 -92.5t-104.5 -37.5z" />
    <glyph glyph-name="abreve" unicode="&#x103;" horiz-adv-x="571" 
d="M234 -12q-51 0 -93 17t-66.5 51.5t-24.5 84.5q0 58 30 92.5t79.5 50t106.5 15.5h134q0 52 -17.5 82t-45.5 43t-62 13q-49 0 -84.5 -23.5t-44.5 -72.5h-86q5 54 36 91t78.5 56.5t100.5 19.5q75 0 121 -27.5t67 -73.5t21 -102v-152q0 -37 9 -56t46 -23v-74q-33 0 -60 8.5
t-45.5 28t-26.5 51.5q-25 -42 -68.5 -71t-104.5 -29zM247 59q50 0 84 25.5t51.5 65.5t17.5 83v1h-127q-35 0 -66 -7.5t-50 -27t-19 -54.5q0 -45 32 -65.5t77 -20.5zM274 588q-69 0 -104.5 37.5t-35.5 92.5v14h50q0 -37 21 -57.5t69 -20.5t69 20.5t21 57.5h51v-14
q0 -55 -36.5 -92.5t-104.5 -37.5z" />
    <glyph glyph-name="Aogonek" unicode="&#x104;" horiz-adv-x="664" 
d="M30 0l258 700h89l257 -700h-89l-64 180h-298l-65 -180h-88zM208 248h248l-124 346zM562 -203q-46 0 -82 23t-36 72q0 35 25.5 67.5t90.5 60.5l53 23l21 -43l-58 -28q-36 -17 -50 -35t-14 -37q0 -23 16.5 -36t43.5 -13q31 0 65 15v-56q-19 -7 -37.5 -10t-37.5 -3z" />
    <glyph glyph-name="aogonek" unicode="&#x105;" horiz-adv-x="571" 
d="M234 -12q-51 0 -93 17t-66.5 51.5t-24.5 84.5q0 58 30 92.5t79.5 50t106.5 15.5h134q0 52 -17.5 82t-45.5 43t-62 13q-49 0 -84.5 -23.5t-44.5 -72.5h-86q5 54 36 91t78.5 56.5t100.5 19.5q75 0 121 -27.5t67 -73.5t21 -102v-152q0 -37 9 -56t46 -23v-74q-33 0 -60 8.5
t-45.5 28t-26.5 51.5q-25 -42 -68.5 -71t-104.5 -29zM247 59q50 0 84 25.5t51.5 65.5t17.5 83v1h-127q-35 0 -66 -7.5t-50 -27t-19 -54.5q0 -45 32 -65.5t77 -20.5zM467 -203q-46 0 -82 23t-36 72q0 35 25.5 67.5t90.5 60.5l53 23l21 -43l-58 -28q-36 -17 -50 -35t-14 -37
q0 -23 16.5 -36t43.5 -13q31 0 65 15v-56q-19 -7 -37.5 -10t-37.5 -3z" />
    <glyph glyph-name="Cacute" unicode="&#x106;" horiz-adv-x="720" 
d="M381 -12q-106 0 -181 47.5t-114 129.5t-39 185q0 102 38.5 184t113.5 130t182 48q120 0 195.5 -57.5t96.5 -160.5h-93q-16 65 -65.5 104.5t-133.5 39.5q-83 0 -138 -38.5t-82.5 -103.5t-27.5 -146q0 -83 28.5 -148t83.5 -102.5t136 -37.5q84 0 133.5 38.5t65.5 102.5h93
q-21 -101 -96.5 -158t-195.5 -57zM276 741v63l210 127v-73z" />
    <glyph glyph-name="cacute" unicode="&#x107;" horiz-adv-x="570" 
d="M297 -12q-70 0 -126.5 32t-89.5 90.5t-33 137.5q0 77 32 135.5t88 91.5t129 33q88 0 148.5 -46t76.5 -123h-86q-10 46 -49 71.5t-91 25.5q-53 0 -89 -26t-54.5 -69t-18.5 -93q0 -55 21 -98t57.5 -67t83.5 -24q52 0 91 25.5t49 72.5h86q-10 -50 -41 -88t-78 -59.5
t-106 -21.5zM188 553v67l210 127v-77z" />
    <glyph glyph-name="Cdotaccent" unicode="&#x10a;" horiz-adv-x="720" 
d="M381 -12q-106 0 -181 47.5t-114 129.5t-39 185q0 102 38.5 184t113.5 130t182 48q120 0 195.5 -57.5t96.5 -160.5h-93q-16 65 -65.5 104.5t-133.5 39.5q-83 0 -138 -38.5t-82.5 -103.5t-27.5 -146q0 -83 28.5 -148t83.5 -102.5t136 -37.5q84 0 133.5 38.5t65.5 102.5h93
q-21 -101 -96.5 -158t-195.5 -57zM381 775q-25 0 -41.5 16.5t-16.5 41.5q0 24 16.5 40t41.5 16q24 0 41 -16t17 -40q0 -25 -17 -41.5t-41 -16.5z" />
    <glyph glyph-name="cdotaccent" unicode="&#x10b;" horiz-adv-x="570" 
d="M297 -12q-70 0 -126.5 32t-89.5 90.5t-33 137.5q0 77 32 135.5t88 91.5t129 33q88 0 148.5 -46t76.5 -123h-86q-10 46 -49 71.5t-91 25.5q-53 0 -89 -26t-54.5 -69t-18.5 -93q0 -55 21 -98t57.5 -67t83.5 -24q52 0 91 25.5t49 72.5h86q-10 -50 -41 -88t-78 -59.5
t-106 -21.5zM293 606q-25 0 -41.5 16.5t-16.5 41.5q0 24 16.5 40t41.5 16q24 0 41 -16t17 -40q0 -25 -17 -41.5t-41 -16.5z" />
    <glyph glyph-name="Ccaron" unicode="&#x10c;" horiz-adv-x="720" 
d="M381 -12q-106 0 -181 47.5t-114 129.5t-39 185q0 102 38.5 184t113.5 130t182 48q120 0 195.5 -57.5t96.5 -160.5h-93q-16 65 -65.5 104.5t-133.5 39.5q-83 0 -138 -38.5t-82.5 -103.5t-27.5 -146q0 -83 28.5 -148t83.5 -102.5t136 -37.5q84 0 133.5 38.5t65.5 102.5h93
q-21 -101 -96.5 -158t-195.5 -57zM381 754l-137 82v65l137 -84l137 84v-65z" />
    <glyph glyph-name="ccaron" unicode="&#x10d;" horiz-adv-x="570" 
d="M297 -12q-70 0 -126.5 32t-89.5 90.5t-33 137.5q0 77 32 135.5t88 91.5t129 33q88 0 148.5 -46t76.5 -123h-86q-10 46 -49 71.5t-91 25.5q-53 0 -89 -26t-54.5 -69t-18.5 -93q0 -55 21 -98t57.5 -67t83.5 -24q52 0 91 25.5t49 72.5h86q-10 -50 -41 -88t-78 -59.5
t-106 -21.5zM293 586l-137 82v65l137 -84l137 84v-65z" />
    <glyph glyph-name="Dcaron" unicode="&#x10e;" horiz-adv-x="696" 
d="M74 0v700h215q124 0 203.5 -42.5t118 -121t38.5 -188.5q0 -108 -38.5 -186t-118 -120t-203.5 -42h-215zM158 70h129q100 0 160.5 32.5t87.5 95t27 150.5q0 143 -66 212.5t-209 69.5h-129v-560zM342 754l-137 82v65l137 -84l137 84v-65z" />
    <glyph glyph-name="dcaron" unicode="&#x10f;" horiz-adv-x="628" 
d="M294 -12q-76 0 -131 35t-85 94t-30 132q0 72 29.5 131t84.5 93.5t133 34.5q61 0 108 -25t73 -70v287h84v-700h-76l-8 82q-24 -36 -69 -65t-113 -29zM303 61q55 0 93 25.5t57.5 68t19.5 93.5q0 54 -20 96t-58 66.5t-92 24.5q-48 0 -86 -23t-60.5 -64.5t-22.5 -99.5
t23 -100t61.5 -64.5t84.5 -22.5zM608 546l48 154h94l-82 -154h-60z" />
    <glyph glyph-name="Dcroat" unicode="&#x110;" horiz-adv-x="717" 
d="M95 0v311h-87v76h87v313h215q124 0 203.5 -42.5t118 -121t38.5 -188.5q0 -108 -38.5 -186t-118 -120t-203.5 -42h-215zM179 70h130q106 0 165.5 35.5t84.5 98t25 144.5q0 143 -66 212.5t-209 69.5h-130v-243h202v-76h-202v-241z" />
    <glyph glyph-name="dcroat" unicode="&#x111;" horiz-adv-x="629" 
d="M294 -12q-76 0 -131 35t-85 94t-30 132q0 72 29.5 131t84.5 93.5t133 34.5q61 0 108 -25t73 -70v158h-171v63h171v66h84v-66h47v-63h-47v-571h-76l-8 82q-24 -36 -69 -65t-113 -29zM134 248q0 -58 23 -100t61.5 -64.5t84.5 -22.5q55 0 93 25.5t57.5 68t19.5 93.5
q0 54 -20 96t-58 66.5t-92 24.5q-48 0 -86 -23t-60.5 -64.5t-22.5 -99.5z" />
    <glyph glyph-name="Emacron" unicode="&#x112;" horiz-adv-x="564" 
d="M74 0v700h433v-69h-349v-227h305v-68h-305v-267h349v-69h-433zM108 796v63h347v-63h-347z" />
    <glyph glyph-name="emacron" unicode="&#x113;" horiz-adv-x="569" 
d="M292 -12q-69 0 -124.5 32t-87.5 90.5t-32 137.5q0 78 30.5 136.5t86 91t129.5 32.5q70 0 122 -31t81.5 -83.5t29.5 -117.5v-22t-1 -25h-395q3 -49 23.5 -87.5t56 -60.5t81.5 -22q52 0 87 24t51 65h83q-13 -46 -43 -82t-74.5 -57t-103.5 -21zM132 294h312q-3 67 -46 105
t-106 38q-60 0 -106.5 -36.5t-53.5 -106.5zM115 632v63h347v-63h-347z" />
    <glyph glyph-name="Ebreve" unicode="&#x114;" horiz-adv-x="564" 
d="M74 0v700h433v-69h-349v-227h305v-68h-305v-267h349v-69h-433zM281 757q-69 0 -104.5 37.5t-35.5 92.5v14h50q0 -37 21 -57.5t69 -20.5t69 20.5t21 57.5h51v-14q0 -55 -36.5 -92.5t-104.5 -37.5z" />
    <glyph glyph-name="ebreve" unicode="&#x115;" horiz-adv-x="569" 
d="M292 -12q-69 0 -124.5 32t-87.5 90.5t-32 137.5q0 78 30.5 136.5t86 91t129.5 32.5q70 0 122 -31t81.5 -83.5t29.5 -117.5v-22t-1 -25h-395q3 -49 23.5 -87.5t56 -60.5t81.5 -22q52 0 87 24t51 65h83q-13 -46 -43 -82t-74.5 -57t-103.5 -21zM132 294h312q-3 67 -46 105
t-106 38q-60 0 -106.5 -36.5t-53.5 -106.5zM288 588q-69 0 -104.5 37.5t-35.5 92.5v14h50q0 -37 21 -57.5t69 -20.5t69 20.5t21 57.5h51v-14q0 -55 -36.5 -92.5t-104.5 -37.5z" />
    <glyph glyph-name="Edotaccent" unicode="&#x116;" horiz-adv-x="564" 
d="M74 0v700h433v-69h-349v-227h305v-68h-305v-267h349v-69h-433zM282 775q-25 0 -41.5 16.5t-16.5 41.5q0 24 16.5 40t41.5 16q24 0 41 -16t17 -40q0 -25 -17 -41.5t-41 -16.5z" />
    <glyph glyph-name="edotaccent" unicode="&#x117;" horiz-adv-x="569" 
d="M292 -12q-69 0 -124.5 32t-87.5 90.5t-32 137.5q0 78 30.5 136.5t86 91t129.5 32.5q70 0 122 -31t81.5 -83.5t29.5 -117.5v-22t-1 -25h-395q3 -49 23.5 -87.5t56 -60.5t81.5 -22q52 0 87 24t51 65h83q-13 -46 -43 -82t-74.5 -57t-103.5 -21zM132 294h312q-3 67 -46 105
t-106 38q-60 0 -106.5 -36.5t-53.5 -106.5zM289 606q-25 0 -41.5 16.5t-16.5 41.5q0 24 16.5 40t41.5 16q24 0 41 -16t17 -40q0 -25 -17 -41.5t-41 -16.5z" />
    <glyph glyph-name="Eogonek" unicode="&#x118;" horiz-adv-x="564" 
d="M74 0v700h433v-69h-349v-227h305v-68h-305v-267h349v-69h-433zM435 -203q-46 0 -82 23t-36 72q0 35 25.5 67.5t90.5 60.5l53 23l21 -43l-58 -28q-36 -17 -50 -35t-14 -37q0 -23 16.5 -36t43.5 -13q31 0 65 15v-56q-19 -7 -37.5 -10t-37.5 -3z" />
    <glyph glyph-name="eogonek" unicode="&#x119;" horiz-adv-x="569" 
d="M292 -12q-69 0 -124.5 32t-87.5 90.5t-32 137.5q0 78 30.5 136.5t86 91t129.5 32.5q70 0 122 -31t81.5 -83.5t29.5 -117.5v-22t-1 -25h-395q3 -49 23.5 -87.5t56 -60.5t81.5 -22q52 0 87 24t51 65h83q-13 -46 -43 -82t-74.5 -57t-103.5 -21zM132 294h312q-3 67 -46 105
t-106 38q-60 0 -106.5 -36.5t-53.5 -106.5zM325 -193q-46 0 -82 23t-36 72q0 35 25.5 67.5t90.5 60.5l53 23l21 -43l-58 -28q-36 -17 -50 -35t-14 -37q0 -23 16.5 -36t43.5 -13q31 0 65 15v-56q-19 -7 -37.5 -10t-37.5 -3z" />
    <glyph glyph-name="Ecaron" unicode="&#x11a;" horiz-adv-x="564" 
d="M74 0v700h433v-69h-349v-227h305v-68h-305v-267h349v-69h-433zM282 754l-137 82v65l137 -84l137 84v-65z" />
    <glyph glyph-name="ecaron" unicode="&#x11b;" horiz-adv-x="569" 
d="M292 -12q-69 0 -124.5 32t-87.5 90.5t-32 137.5q0 78 30.5 136.5t86 91t129.5 32.5q70 0 122 -31t81.5 -83.5t29.5 -117.5v-22t-1 -25h-395q3 -49 23.5 -87.5t56 -60.5t81.5 -22q52 0 87 24t51 65h83q-13 -46 -43 -82t-74.5 -57t-103.5 -21zM132 294h312q-3 67 -46 105
t-106 38q-60 0 -106.5 -36.5t-53.5 -106.5zM289 586l-137 82v65l137 -84l137 84v-65z" />
    <glyph glyph-name="Gbreve" unicode="&#x11e;" horiz-adv-x="757" 
d="M375 -12q-100 0 -173.5 46.5t-114 128t-40.5 186.5q0 104 40 186t116 129.5t184 47.5q118 0 196.5 -57t101.5 -157h-97q-14 63 -66.5 100t-134.5 37q-83 0 -140 -38t-85.5 -102.5t-28.5 -145.5q0 -82 29 -147t84 -102t132 -37q112 0 169 65.5t65 179.5h-252v66h338v-374
h-77l-7 115q-38 -61 -93 -94t-146 -33zM378 757q-69 0 -104.5 37.5t-35.5 92.5v14h50q0 -37 21 -57.5t69 -20.5t69 20.5t21 57.5h51v-14q0 -55 -36.5 -92.5t-104.5 -37.5z" />
    <glyph glyph-name="gbreve" unicode="&#x11f;" horiz-adv-x="529" 
d="M266 -232q-59 0 -113 15t-87.5 50.5t-33.5 94.5q0 41 19 68t50 41q-24 14 -39 35t-15 48q0 60 54 97q-20 23 -31.5 51.5t-11.5 63.5q0 55 25.5 94.5t70 60.5t101.5 21q42 0 79 -12h169v-71h-77q13 -20 19.5 -43.5t6.5 -49.5q0 -57 -26.5 -96t-71 -59.5t-99.5 -20.5
q-28 0 -51 6t-46 17q-26 -13 -26 -40q0 -50 84 -50h83q56 0 99 -14.5t67.5 -47t24.5 -88.5q0 -57 -32 -95t-83 -57t-109 -19zM264 -162q60 0 102 22.5t42 68.5q0 86 -104 86h-85q-49 0 -77 -21.5t-28 -64.5q0 -33 21 -53t55 -29t74 -9zM253 226q52 0 85 30t33 76t-33 76
t-85 30t-83.5 -30t-31.5 -76t30.5 -76t84.5 -30zM253 588q-69 0 -104.5 37.5t-35.5 92.5v14h50q0 -37 21 -57.5t69 -20.5t69 20.5t21 57.5h51v-14q0 -55 -36.5 -92.5t-104.5 -37.5z" />
    <glyph glyph-name="Gdotaccent" unicode="&#x120;" horiz-adv-x="757" 
d="M375 -12q-100 0 -173.5 46.5t-114 128t-40.5 186.5q0 104 40 186t116 129.5t184 47.5q118 0 196.5 -57t101.5 -157h-97q-14 63 -66.5 100t-134.5 37q-83 0 -140 -38t-85.5 -102.5t-28.5 -145.5q0 -82 29 -147t84 -102t132 -37q112 0 169 65.5t65 179.5h-252v66h338v-374
h-77l-7 115q-38 -61 -93 -94t-146 -33zM379 775q-25 0 -41.5 16.5t-16.5 41.5q0 24 16.5 40t41.5 16q24 0 41 -16t17 -40q0 -25 -17 -41.5t-41 -16.5z" />
    <glyph glyph-name="gdotaccent" unicode="&#x121;" horiz-adv-x="529" 
d="M266 -232q-59 0 -113 15t-87.5 50.5t-33.5 94.5q0 41 19 68t50 41q-24 14 -39 35t-15 48q0 60 54 97q-20 23 -31.5 51.5t-11.5 63.5q0 55 25.5 94.5t70 60.5t101.5 21q42 0 79 -12h169v-71h-77q13 -20 19.5 -43.5t6.5 -49.5q0 -57 -26.5 -96t-71 -59.5t-99.5 -20.5
q-28 0 -51 6t-46 17q-26 -13 -26 -40q0 -50 84 -50h83q56 0 99 -14.5t67.5 -47t24.5 -88.5q0 -57 -32 -95t-83 -57t-109 -19zM264 -162q60 0 102 22.5t42 68.5q0 86 -104 86h-85q-49 0 -77 -21.5t-28 -64.5q0 -33 21 -53t55 -29t74 -9zM253 226q52 0 85 30t33 76t-33 76
t-85 30t-83.5 -30t-31.5 -76t30.5 -76t84.5 -30zM254 606q-25 0 -41.5 16.5t-16.5 41.5q0 24 16.5 40t41.5 16q24 0 41 -16t17 -40q0 -25 -17 -41.5t-41 -16.5z" />
    <glyph glyph-name="uni0122" unicode="&#x122;" horiz-adv-x="757" 
d="M375 -12q-100 0 -173.5 46.5t-114 128t-40.5 186.5q0 104 40 186t116 129.5t184 47.5q118 0 196.5 -57t101.5 -157h-97q-14 63 -66.5 100t-134.5 37q-83 0 -140 -38t-85.5 -102.5t-28.5 -145.5q0 -82 29 -147t84 -102t132 -37q112 0 169 65.5t65 179.5h-252v66h338v-374
h-77l-7 115q-38 -61 -93 -94t-146 -33zM330 -238v40q47 0 47 57v14h-45v77h86q5 -20 7 -38.5t2 -35.5q0 -60 -25 -87t-72 -27z" />
    <glyph glyph-name="uni0123" unicode="&#x123;" horiz-adv-x="529" 
d="M266 -232q-59 0 -113 15t-87.5 50.5t-33.5 94.5q0 41 19 68t50 41q-24 14 -39 35t-15 48q0 60 54 97q-20 23 -31.5 51.5t-11.5 63.5q0 55 25.5 94.5t70 60.5t101.5 21q42 0 79 -12h169v-71h-77q13 -20 19.5 -43.5t6.5 -49.5q0 -57 -26.5 -96t-71 -59.5t-99.5 -20.5
q-28 0 -51 6t-46 17q-26 -13 -26 -40q0 -50 84 -50h83q56 0 99 -14.5t67.5 -47t24.5 -88.5q0 -57 -32 -95t-83 -57t-109 -19zM264 -162q60 0 102 22.5t42 68.5q0 86 -104 86h-85q-49 0 -77 -21.5t-28 -64.5q0 -33 21 -53t55 -29t74 -9zM253 226q52 0 85 30t33 76t-33 76
t-85 30t-83.5 -30t-31.5 -76t30.5 -76t84.5 -30zM300 783v-40q-47 0 -47 -57v-14h45v-77h-86q-4 20 -6.5 39t-2.5 35q0 60 25 87t72 27z" />
    <glyph glyph-name="Hbar" unicode="&#x126;" horiz-adv-x="679" 
d="M74 0v513h-50v69h50v118h84v-118h363v118h84v-118h50v-69h-50v-513h-84v336h-363v-336h-84zM158 405h363v108h-363v-108z" />
    <glyph glyph-name="hbar" unicode="&#x127;" horiz-adv-x="572" 
d="M69 0v571h-47v63h47v66h84v-66h171v-63h-171v-160q25 46 71 71.5t100 25.5q86 0 138 -53.5t52 -164.5v-290h-83v281q0 77 -31.5 116t-93.5 39q-65 0 -109 -46.5t-44 -132.5v-257h-84z" />
    <glyph glyph-name="Itilde" unicode="&#x128;" horiz-adv-x="232" 
d="M74 0v700h84v-700h-84zM171 756q-27 0 -44 12t-32 23.5t-39 11.5q-36 0 -42 -45h-49q7 51 32 76t63 25q27 0 44 -11.5t32.5 -23.5t38.5 -12q16 0 28 11t15 34h49q-6 -49 -32 -75t-64 -26z" />
    <glyph glyph-name="itilde" unicode="&#x129;" horiz-adv-x="222" 
d="M69 0v496h84v-496h-84zM166 602q-27 0 -44 11t-32 21.5t-39 10.5q-18 0 -28.5 -9t-13.5 -32h-49q7 51 32 76t63 25q27 0 44 -10.5t32.5 -21.5t38.5 -11q16 0 28 9t15 32h49q-6 -49 -32 -75t-64 -26z" />
    <glyph glyph-name="Imacron" unicode="&#x12a;" horiz-adv-x="232" 
d="M74 0v700h84v-700h-84zM-58 796v63h347v-63h-347z" />
    <glyph glyph-name="imacron" unicode="&#x12b;" horiz-adv-x="222" 
d="M69 0v496h84v-496h-84zM-63 632v63h347v-63h-347z" />
    <glyph glyph-name="Ibreve" unicode="&#x12c;" horiz-adv-x="232" 
d="M74 0v700h84v-700h-84zM115 757q-69 0 -104.5 37.5t-35.5 92.5v14h50q0 -37 21 -57.5t69 -20.5t69 20.5t21 57.5h51v-14q0 -55 -36.5 -92.5t-104.5 -37.5z" />
    <glyph glyph-name="ibreve" unicode="&#x12d;" horiz-adv-x="222" 
d="M69 0v496h84v-496h-84zM110 588q-69 0 -104.5 37.5t-35.5 92.5v14h50q0 -37 21 -57.5t69 -20.5t69 20.5t21 57.5h51v-14q0 -55 -36.5 -92.5t-104.5 -37.5z" />
    <glyph glyph-name="Iogonek" unicode="&#x12e;" horiz-adv-x="232" 
d="M74 0v700h84v-700h-84zM86 -203q-46 0 -82 23t-36 72q0 35 25.5 67.5t90.5 60.5l53 23l21 -43l-58 -28q-36 -17 -50 -35t-14 -37q0 -23 16.5 -36t43.5 -13q31 0 65 15v-56q-19 -7 -37.5 -10t-37.5 -3z" />
    <glyph glyph-name="iogonek" unicode="&#x12f;" horiz-adv-x="222" 
d="M69 0v496h84v-496h-84zM111 606q-25 0 -41.5 16.5t-16.5 41.5q0 24 16.5 40t41.5 16q24 0 41 -16t17 -40q0 -25 -17 -41.5t-41 -16.5zM81 -203q-46 0 -82 23t-36 72q0 35 25.5 67.5t90.5 60.5l53 23l21 -43l-58 -28q-36 -17 -50 -35t-14 -37q0 -23 16.5 -36t43.5 -13
q31 0 65 15v-56q-19 -7 -37.5 -10t-37.5 -3z" />
    <glyph glyph-name="Idotaccent" unicode="&#x130;" horiz-adv-x="232" 
d="M74 0v700h84v-700h-84zM116 775q-25 0 -41.5 16.5t-16.5 41.5q0 24 16.5 40t41.5 16q24 0 41 -16t17 -40q0 -25 -17 -41.5t-41 -16.5z" />
    <glyph glyph-name="dotlessi" unicode="&#x131;" horiz-adv-x="222" 
d="M69 0v496h84v-496h-84z" />
    <glyph glyph-name="IJ" unicode="&#x132;" horiz-adv-x="731" 
d="M74 0v700h84v-700h-84zM462 -12q-95 0 -149 53t-54 147h85q0 -53 26 -89t91 -36q63 0 87.5 35t24.5 87v515h84v-515q0 -93 -51.5 -145t-143.5 -52z" />
    <glyph glyph-name="ij" unicode="&#x133;" horiz-adv-x="481" 
d="M120 606q-25 0 -41.5 16.5t-16.5 41.5q0 24 16.5 40t41.5 16q24 0 41 -16t17 -40q0 -25 -17 -41.5t-41 -16.5zM78 0v496h84v-496h-84zM211 -220v72h39q37 0 53.5 15.5t16.5 52.5v576h84v-578q0 -48 -16 -78.5t-47.5 -45t-77.5 -14.5h-52zM363 606q-24 0 -41 16.5
t-17 41.5q0 24 17 40t41 16t40.5 -16t16.5 -40q0 -25 -16.5 -41.5t-40.5 -16.5z" />
    <glyph glyph-name="uni0136" unicode="&#x136;" horiz-adv-x="582" 
d="M542 700l-246 -264l273 -436h-102l-231 371l-78 -83v-288h-84v700h84v-302l278 302h106zM242 -238v40q47 0 47 57v14h-45v77h86q5 -20 7 -38.5t2 -35.5q0 -60 -25 -87t-72 -27z" />
    <glyph glyph-name="uni0137" unicode="&#x137;" horiz-adv-x="504" 
d="M69 0v700h84v-413l203 209h103l-220 -224l248 -272h-107l-227 257v-257h-84zM203 -238v40q47 0 47 57v14h-45v77h86q5 -20 7 -38.5t2 -35.5q0 -60 -25 -87t-72 -27z" />
    <glyph glyph-name="Lacute" unicode="&#x139;" horiz-adv-x="525" 
d="M74 0v700h84v-633h326v-67h-410zM73 741v63l210 127v-73z" />
    <glyph glyph-name="lacute" unicode="&#x13a;" horiz-adv-x="222" 
d="M69 0v700h84v-700h-84zM6 757v67l210 127v-77z" />
    <glyph glyph-name="uni013B" unicode="&#x13b;" horiz-adv-x="525" 
d="M74 0v700h84v-633h326v-67h-410zM214 -238v40q47 0 47 57v14h-45v77h86q5 -20 7 -38.5t2 -35.5q0 -60 -25 -87t-72 -27z" />
    <glyph glyph-name="uni013C" unicode="&#x13c;" horiz-adv-x="222" 
d="M69 0v700h84v-700h-84zM62 -238v40q47 0 47 57v14h-45v77h86q5 -20 7 -38.5t2 -35.5q0 -60 -25 -87t-72 -27z" />
    <glyph glyph-name="Lcaron" unicode="&#x13d;" horiz-adv-x="525" 
d="M74 0v700h84v-633h326v-67h-410zM257 546l48 154h94l-82 -154h-60z" />
    <glyph glyph-name="lcaron" unicode="&#x13e;" horiz-adv-x="222" 
d="M69 0v700h84v-700h-84zM202 546l48 154h94l-82 -154h-60z" />
    <glyph glyph-name="Ldot" unicode="&#x13f;" horiz-adv-x="525" 
d="M74 0v700h84v-633h326v-67h-410zM357 293q-25 0 -41.5 16.5t-16.5 40.5q0 25 16.5 41t41.5 16q24 0 40.5 -16t16.5 -41q0 -24 -16.5 -40.5t-40.5 -16.5z" />
    <glyph glyph-name="ldot" unicode="&#x140;" horiz-adv-x="346" 
d="M78 0v700h84v-700h-84zM288 318q-21 0 -35.5 14.5t-14.5 34.5q0 21 14.5 35.5t35.5 14.5t35.5 -14.5t14.5 -35.5q0 -20 -14.5 -34.5t-35.5 -14.5z" />
    <glyph glyph-name="Lslash" unicode="&#x141;" horiz-adv-x="551" 
d="M100 0v314l-80 -30v67l80 30v319h84v-287l122 46v-67l-122 -46v-279h326v-67h-410z" />
    <glyph glyph-name="lslash" unicode="&#x142;" horiz-adv-x="251" 
d="M76 0v361l-74 -30v67l74 31v271h84v-237l75 31v-68l-75 -30v-396h-84z" />
    <glyph glyph-name="Nacute" unicode="&#x143;" horiz-adv-x="689" 
d="M74 0v700h84l373 -561v561h84v-700h-84l-373 561v-561h-84zM240 741v63l210 127v-73z" />
    <glyph glyph-name="nacute" unicode="&#x144;" horiz-adv-x="573" 
d="M69 0v496h76l5 -89q24 47 69 74t102 27q88 0 140.5 -53.5t52.5 -164.5v-290h-84v281q0 77 -32 116t-96 39t-106.5 -46.5t-42.5 -132.5v-257h-84zM201 553v67l210 127v-77z" />
    <glyph glyph-name="uni0145" unicode="&#x145;" horiz-adv-x="689" 
d="M74 0v700h84l373 -561v561h84v-700h-84l-373 561v-561h-84zM296 -238v40q47 0 47 57v14h-45v77h86q5 -20 7 -38.5t2 -35.5q0 -60 -25 -87t-72 -27z" />
    <glyph glyph-name="uni0146" unicode="&#x146;" horiz-adv-x="573" 
d="M69 0v496h76l5 -89q24 47 69 74t102 27q88 0 140.5 -53.5t52.5 -164.5v-290h-84v281q0 77 -32 116t-96 39t-106.5 -46.5t-42.5 -132.5v-257h-84zM251 -238v40q47 0 47 57v14h-45v77h86q5 -20 7 -38.5t2 -35.5q0 -60 -25 -87t-72 -27z" />
    <glyph glyph-name="Ncaron" unicode="&#x147;" horiz-adv-x="689" 
d="M74 0v700h84l373 -561v561h84v-700h-84l-373 561v-561h-84zM345 754l-137 82v65l137 -84l137 84v-65z" />
    <glyph glyph-name="ncaron" unicode="&#x148;" horiz-adv-x="573" 
d="M69 0v496h76l5 -89q24 47 69 74t102 27q88 0 140.5 -53.5t52.5 -164.5v-290h-84v281q0 77 -32 116t-96 39t-106.5 -46.5t-42.5 -132.5v-257h-84zM306 586l-137 82v65l137 -84l137 84v-65z" />
    <glyph glyph-name="Eng" unicode="&#x14a;" horiz-adv-x="689" 
d="M74 0v700h84l373 -561v561h84v-782q0 -48 -16 -78.5t-47.5 -45t-77.5 -14.5h-52v72h39q37 0 53.5 15.5t16.5 52.5v80l-373 561v-561h-84z" />
    <glyph glyph-name="eng" unicode="&#x14b;" horiz-adv-x="572" 
d="M321 -220v72h39q37 0 53.5 15.5t16.5 52.5v361q0 77 -32 116t-96 39t-106.5 -46.5t-42.5 -132.5v-257h-84v496h76l5 -89q24 47 69 74t102 27q88 0 140.5 -53.5t52.5 -164.5v-372q0 -48 -16 -78.5t-47.5 -45t-77.5 -14.5h-52z" />
    <glyph glyph-name="Omacron" unicode="&#x14c;" horiz-adv-x="784" 
d="M392 -12q-80 0 -144 27.5t-109 76.5t-68.5 115t-23.5 143t23.5 143t68.5 115t108.5 76.5t144.5 27.5q80 0 143.5 -26.5t108.5 -75t69 -115t24 -145.5t-24 -145.5t-69 -115t-108.5 -75t-143.5 -26.5zM392 62q82 0 140 37t88.5 102t30.5 149q0 86 -30.5 150.5t-88.5 100.5
t-140 36q-81 0 -139 -37t-89 -101.5t-31 -148.5q0 -83 31 -148.5t89 -102.5t139 -37zM218 796v63h347v-63h-347z" />
    <glyph glyph-name="omacron" unicode="&#x14d;" horiz-adv-x="604" 
d="M298 -12q-68 0 -125 30.5t-91 89t-34 141.5q0 79 33.5 137t91 90t129.5 32q69 0 126.5 -30t92.5 -88t35 -141q0 -76 -33 -135t-91.5 -92.5t-133.5 -33.5zM298 61q49 0 88 23.5t62 65.5t23 99q0 54 -20 96t-58 66t-92 24q-55 0 -92.5 -25t-56.5 -67t-19 -94
q0 -66 24 -107.5t62 -61t79 -19.5zM128 632v63h347v-63h-347z" />
    <glyph glyph-name="Obreve" unicode="&#x14e;" horiz-adv-x="784" 
d="M392 -12q-80 0 -144 27.5t-109 76.5t-68.5 115t-23.5 143t23.5 143t68.5 115t108.5 76.5t144.5 27.5q80 0 143.5 -26.5t108.5 -75t69 -115t24 -145.5t-24 -145.5t-69 -115t-108.5 -75t-143.5 -26.5zM392 62q82 0 140 37t88.5 102t30.5 149q0 86 -30.5 150.5t-88.5 100.5
t-140 36q-81 0 -139 -37t-89 -101.5t-31 -148.5q0 -83 31 -148.5t89 -102.5t139 -37zM391 757q-69 0 -104.5 37.5t-35.5 92.5v14h50q0 -37 21 -57.5t69 -20.5t69 20.5t21 57.5h51v-14q0 -55 -36.5 -92.5t-104.5 -37.5z" />
    <glyph glyph-name="obreve" unicode="&#x14f;" horiz-adv-x="604" 
d="M298 -12q-68 0 -125 30.5t-91 89t-34 141.5q0 79 33.5 137t91 90t129.5 32q69 0 126.5 -30t92.5 -88t35 -141q0 -76 -33 -135t-91.5 -92.5t-133.5 -33.5zM298 61q49 0 88 23.5t62 65.5t23 99q0 54 -20 96t-58 66t-92 24q-55 0 -92.5 -25t-56.5 -67t-19 -94
q0 -66 24 -107.5t62 -61t79 -19.5zM301 588q-69 0 -104.5 37.5t-35.5 92.5v14h50q0 -37 21 -57.5t69 -20.5t69 20.5t21 57.5h51v-14q0 -55 -36.5 -92.5t-104.5 -37.5z" />
    <glyph glyph-name="Ohungarumlaut" unicode="&#x150;" horiz-adv-x="784" 
d="M392 -12q-80 0 -144 27.5t-109 76.5t-68.5 115t-23.5 143t23.5 143t68.5 115t108.5 76.5t144.5 27.5q80 0 143.5 -26.5t108.5 -75t69 -115t24 -145.5t-24 -145.5t-69 -115t-108.5 -75t-143.5 -26.5zM392 62q82 0 140 37t88.5 102t30.5 149q0 86 -30.5 150.5t-88.5 100.5
t-140 36q-81 0 -139 -37t-89 -101.5t-31 -148.5q0 -83 31 -148.5t89 -102.5t139 -37zM392 753l72 149h73l-89 -149h-56zM246 753l66 149h73l-82 -149h-57z" />
    <glyph glyph-name="ohungarumlaut" unicode="&#x151;" horiz-adv-x="604" 
d="M298 -12q-68 0 -125 30.5t-91 89t-34 141.5q0 79 33.5 137t91 90t129.5 32q69 0 126.5 -30t92.5 -88t35 -141q0 -76 -33 -135t-91.5 -92.5t-133.5 -33.5zM298 61q49 0 88 23.5t62 65.5t23 99q0 54 -20 96t-58 66t-92 24q-55 0 -92.5 -25t-56.5 -67t-19 -94
q0 -66 24 -107.5t62 -61t79 -19.5zM332 549l72 149h73l-89 -149h-56zM186 549l66 149h73l-82 -149h-57z" />
    <glyph glyph-name="OE" unicode="&#x152;" horiz-adv-x="1118" 
d="M393 -12q-76 0 -139.5 27.5t-110 77t-71.5 115.5t-25 142q0 78 25.5 144t72.5 115t110 76t138 27q82 0 151.5 -35t114.5 -102v125h402v-69h-318v-227h278v-68h-278v-267h318v-69h-402v124q-45 -66 -114.5 -101t-151.5 -35zM395 62q66 0 115 24.5t82 65.5t49 92.5
t16 105.5q0 92 -35.5 156t-95 97.5t-131.5 33.5q-84 0 -142.5 -40t-89 -105.5t-30.5 -141.5q0 -73 22.5 -127t60 -90t84.5 -53.5t95 -17.5z" />
    <glyph glyph-name="oe" unicode="&#x153;" horiz-adv-x="979" 
d="M295 -12q-70 0 -126 32.5t-88 90.5q-16 29 -24.5 63t-8.5 74q0 79 33 137.5t90 90.5q56 32 126 32q67 0 118.5 -29.5t80.5 -84.5q31 54 84.5 84t123.5 30q72 0 124.5 -32.5t80.5 -85.5q28 -52 28 -114q0 -11 -0.5 -22t-1.5 -25h-395q4 -76 49.5 -123t112.5 -47
q52 0 87.5 24t52.5 65h83q-14 -46 -44 -82t-75 -57t-104 -21q-68 0 -121 30t-84 84q-30 -54 -82 -84t-120 -30zM295 60q54 0 90 26t54.5 69t18.5 93q0 57 -20.5 99t-57 65.5t-83.5 23.5q-54 0 -90 -26t-54.5 -68.5t-18.5 -93.5q0 -54 20.5 -96.5t56.5 -67t84 -24.5zM542 294
h312q-3 67 -46 105t-107 38q-40 0 -74.5 -16.5t-57.5 -48t-27 -78.5z" />
    <glyph glyph-name="Racute" unicode="&#x154;" horiz-adv-x="593" 
d="M74 0v700h207q74 0 126 -21.5t80 -64.5t28 -109q0 -82 -42.5 -124t-115.5 -55l201 -326h-104l-180 310h-116v-310h-84zM158 381h121q56 0 89 13.5t47 41.5t14 69q0 42 -14 70t-47 41.5t-89 13.5h-121v-249zM178 741v63l210 127v-73z" />
    <glyph glyph-name="racute" unicode="&#x155;" horiz-adv-x="363" 
d="M69 0v496h76l7 -95q23 49 70 78t116 29v-88h-23q-82 0 -122 -44t-40 -126v-250h-84zM77 553v67l210 127v-77z" />
    <glyph glyph-name="uni0156" unicode="&#x156;" horiz-adv-x="593" 
d="M74 0v700h207q74 0 126 -21.5t80 -64.5t28 -109q0 -82 -42.5 -124t-115.5 -55l201 -326h-104l-180 310h-116v-310h-84zM158 381h121q56 0 89 13.5t47 41.5t14 69q0 42 -14 70t-47 41.5t-89 13.5h-121v-249zM253 -238v40q47 0 47 57v14h-45v77h86q5 -20 7 -38.5t2 -35.5
q0 -60 -25 -87t-72 -27z" />
    <glyph glyph-name="uni0157" unicode="&#x157;" horiz-adv-x="363" 
d="M69 0v496h76l7 -95q23 49 70 78t116 29v-88h-23q-82 0 -122 -44t-40 -126v-250h-84zM67 -238v40q47 0 47 57v14h-45v77h86q5 -20 7 -38.5t2 -35.5q0 -60 -25 -87t-72 -27z" />
    <glyph glyph-name="Rcaron" unicode="&#x158;" horiz-adv-x="593" 
d="M74 0v700h207q74 0 126 -21.5t80 -64.5t28 -109q0 -82 -42.5 -124t-115.5 -55l201 -326h-104l-180 310h-116v-310h-84zM158 381h121q56 0 89 13.5t47 41.5t14 69q0 42 -14 70t-47 41.5t-89 13.5h-121v-249zM283 754l-137 82v65l137 -84l137 84v-65z" />
    <glyph glyph-name="rcaron" unicode="&#x159;" horiz-adv-x="363" 
d="M69 0v496h76l7 -95q23 49 70 78t116 29v-88h-23q-82 0 -122 -44t-40 -126v-250h-84zM182 586l-137 82v65l137 -84l137 84v-65z" />
    <glyph glyph-name="Sacute" unicode="&#x15a;" horiz-adv-x="578" 
d="M297 -12q-71 0 -128.5 26t-91 75.5t-33.5 120.5h88q0 -70 46 -110.5t119 -40.5q64 0 106.5 31t42.5 88q0 39 -13.5 62.5t-40.5 39t-68 29.5t-97 33q-50 18 -85.5 41t-54.5 56.5t-19 80.5q-1 62 28.5 104.5t80 65t111.5 22.5q62 0 111.5 -22.5t79.5 -66t31 -105.5h-88
q0 53 -38 87.5t-99 34.5q-54 2 -92 -27t-38 -85q0 -37 15.5 -58.5t53.5 -37.5t105 -39q48 -16 86 -33.5t64 -41t40 -56t14 -79.5q0 -63 -32.5 -106.5t-86 -66t-117.5 -22.5zM184 741v63l210 127v-73z" />
    <glyph glyph-name="sacute" unicode="&#x15b;" horiz-adv-x="500" 
d="M259 -12q-59 0 -106 20.5t-75.5 58t-35.5 88.5h86q8 -39 41.5 -67.5t90.5 -28.5q53 0 78 22.5t25 53.5q0 30 -14.5 46t-42 24.5t-67.5 16.5q-42 9 -82 24.5t-66 42.5t-26 71t22 77t62.5 52t95.5 19q79 0 129.5 -39.5t58.5 -112.5h-83q-5 38 -32.5 59.5t-73.5 21.5
q-45 0 -69.5 -19t-24.5 -50q0 -20 14 -34t40.5 -24t62.5 -18q50 -10 91 -25t66 -43.5t25 -81.5q1 -44 -22.5 -79t-66 -55t-101.5 -20zM145 553v67l210 127v-77z" />
    <glyph glyph-name="Scedilla" unicode="&#x15e;" horiz-adv-x="578" 
d="M297 -12q-71 0 -128.5 26t-91 75.5t-33.5 120.5h88q0 -70 46 -110.5t119 -40.5q64 0 106.5 31t42.5 88q0 39 -13.5 62.5t-40.5 39t-68 29.5t-97 33q-50 18 -85.5 41t-54.5 56.5t-19 80.5q-1 62 28.5 104.5t80 65t111.5 22.5q62 0 111.5 -22.5t79.5 -66t31 -105.5h-88
q0 53 -38 87.5t-99 34.5q-54 2 -92 -27t-38 -85q0 -37 15.5 -58.5t53.5 -37.5t105 -39q48 -16 86 -33.5t64 -41t40 -56t14 -79.5q0 -63 -32.5 -106.5t-86 -66t-117.5 -22.5zM217 -259v53h92q68 0 68 48q0 45 -68 45h-49v130h56v-80q38 1 67 -9.5t45.5 -32.5t16.5 -54
q0 -31 -15.5 -53.5t-42.5 -34.5t-63 -12h-107z" />
    <glyph glyph-name="scedilla" unicode="&#x15f;" horiz-adv-x="500" 
d="M259 -12q-59 0 -106 20.5t-75.5 58t-35.5 88.5h86q8 -39 41.5 -67.5t90.5 -28.5q53 0 78 22.5t25 53.5q0 30 -14.5 46t-42 24.5t-67.5 16.5q-42 9 -82 24.5t-66 42.5t-26 71t22 77t62.5 52t95.5 19q79 0 129.5 -39.5t58.5 -112.5h-83q-5 38 -32.5 59.5t-73.5 21.5
q-45 0 -69.5 -19t-24.5 -50q0 -20 14 -34t40.5 -24t62.5 -18q50 -10 91 -25t66 -43.5t25 -81.5q1 -44 -22.5 -79t-66 -55t-101.5 -20zM181 -259v53h92q68 0 68 48q0 45 -68 45h-49v130h56v-80q38 1 67 -9.5t45.5 -32.5t16.5 -54q0 -31 -15.5 -53.5t-42.5 -34.5t-63 -12h-107
z" />
    <glyph glyph-name="Scaron" unicode="&#x160;" horiz-adv-x="578" 
d="M297 -12q-71 0 -128.5 26t-91 75.5t-33.5 120.5h88q0 -70 46 -110.5t119 -40.5q64 0 106.5 31t42.5 88q0 39 -13.5 62.5t-40.5 39t-68 29.5t-97 33q-50 18 -85.5 41t-54.5 56.5t-19 80.5q-1 62 28.5 104.5t80 65t111.5 22.5q62 0 111.5 -22.5t79.5 -66t31 -105.5h-88
q0 53 -38 87.5t-99 34.5q-54 2 -92 -27t-38 -85q0 -37 15.5 -58.5t53.5 -37.5t105 -39q48 -16 86 -33.5t64 -41t40 -56t14 -79.5q0 -63 -32.5 -106.5t-86 -66t-117.5 -22.5zM289 754l-137 82v65l137 -84l137 84v-65z" />
    <glyph glyph-name="scaron" unicode="&#x161;" horiz-adv-x="500" 
d="M259 -12q-59 0 -106 20.5t-75.5 58t-35.5 88.5h86q8 -39 41.5 -67.5t90.5 -28.5q53 0 78 22.5t25 53.5q0 30 -14.5 46t-42 24.5t-67.5 16.5q-42 9 -82 24.5t-66 42.5t-26 71t22 77t62.5 52t95.5 19q79 0 129.5 -39.5t58.5 -112.5h-83q-5 38 -32.5 59.5t-73.5 21.5
q-45 0 -69.5 -19t-24.5 -50q0 -20 14 -34t40.5 -24t62.5 -18q50 -10 91 -25t66 -43.5t25 -81.5q1 -44 -22.5 -79t-66 -55t-101.5 -20zM250 586l-137 82v65l137 -84l137 84v-65z" />
    <glyph glyph-name="uni0162" unicode="&#x162;" horiz-adv-x="560" 
d="M238 0v631h-209v69h502v-69h-209v-631h-84zM208 -259v53h92q68 0 68 48q0 45 -68 45h-49v130h56v-80q38 1 67 -9.5t45.5 -32.5t16.5 -54q0 -31 -15.5 -53.5t-42.5 -34.5t-63 -12h-107z" />
    <glyph glyph-name="uni0163" unicode="&#x163;" horiz-adv-x="387" 
d="M265 0q-68 0 -107 33t-39 119v273h-86v71h86v119h84v-119h139v-71h-139v-273q0 -47 19 -63.5t67 -16.5h53v-72h-77zM164 -259v53h92q68 0 68 48q0 45 -68 45h-49v130h56v-80q38 1 67 -9.5t45.5 -32.5t16.5 -54q0 -31 -15.5 -53.5t-42.5 -34.5t-63 -12h-107z" />
    <glyph glyph-name="Tcaron" unicode="&#x164;" horiz-adv-x="560" 
d="M238 0v631h-209v69h502v-69h-209v-631h-84zM280 754l-137 82v65l137 -84l137 84v-65z" />
    <glyph glyph-name="tcaron" unicode="&#x165;" horiz-adv-x="387" 
d="M265 0q-68 0 -107 33t-39 119v273h-86v71h86v119h84v-119h139v-71h-139v-273q0 -47 19 -63.5t67 -16.5h53v-72h-77zM253 546l48 154h94l-82 -154h-60z" />
    <glyph glyph-name="Utilde" unicode="&#x168;" horiz-adv-x="656" 
d="M327 -12q-92 0 -149 37.5t-83.5 99t-26.5 133.5v442h84v-443q0 -102 49 -148t128 -46t127 46t48 148v443h84v-442q0 -77 -23 -129t-61.5 -83t-84.5 -44.5t-92 -13.5zM383 756q-27 0 -44 12t-32 23.5t-39 11.5q-36 0 -42 -45h-49q7 51 32 76t63 25q27 0 44 -11.5
t32.5 -23.5t38.5 -12q16 0 28 11t15 34h49q-6 -49 -32 -75t-64 -26z" />
    <glyph glyph-name="utilde" unicode="&#x169;" horiz-adv-x="572" 
d="M251 -12q-58 0 -101.5 23.5t-67.5 72t-24 122.5v290h84v-281q0 -77 32 -116t96 -39t106.5 46.5t42.5 132.5v257h84v-496h-76l-5 89q-24 -47 -69 -74t-102 -27zM339 602q-27 0 -44 11t-32 21.5t-39 10.5q-18 0 -28.5 -9t-13.5 -32h-49q7 51 32 76t63 25q27 0 44 -10.5
t32.5 -21.5t38.5 -11q16 0 28 9t15 32h49q-6 -49 -32 -75t-64 -26z" />
    <glyph glyph-name="Umacron" unicode="&#x16a;" horiz-adv-x="656" 
d="M327 -12q-92 0 -149 37.5t-83.5 99t-26.5 133.5v442h84v-443q0 -102 49 -148t128 -46t127 46t48 148v443h84v-442q0 -77 -23 -129t-61.5 -83t-84.5 -44.5t-92 -13.5zM154 796v63h347v-63h-347z" />
    <glyph glyph-name="umacron" unicode="&#x16b;" horiz-adv-x="572" 
d="M251 -12q-58 0 -101.5 23.5t-67.5 72t-24 122.5v290h84v-281q0 -77 32 -116t96 -39t106.5 46.5t42.5 132.5v257h84v-496h-76l-5 89q-24 -47 -69 -74t-102 -27zM110 632v63h347v-63h-347z" />
    <glyph glyph-name="Ubreve" unicode="&#x16c;" horiz-adv-x="656" 
d="M327 -12q-92 0 -149 37.5t-83.5 99t-26.5 133.5v442h84v-443q0 -102 49 -148t128 -46t127 46t48 148v443h84v-442q0 -77 -23 -129t-61.5 -83t-84.5 -44.5t-92 -13.5zM327 757q-69 0 -104.5 37.5t-35.5 92.5v14h50q0 -37 21 -57.5t69 -20.5t69 20.5t21 57.5h51v-14
q0 -55 -36.5 -92.5t-104.5 -37.5z" />
    <glyph glyph-name="ubreve" unicode="&#x16d;" horiz-adv-x="572" 
d="M251 -12q-58 0 -101.5 23.5t-67.5 72t-24 122.5v290h84v-281q0 -77 32 -116t96 -39t106.5 46.5t42.5 132.5v257h84v-496h-76l-5 89q-24 -47 -69 -74t-102 -27zM283 588q-69 0 -104.5 37.5t-35.5 92.5v14h50q0 -37 21 -57.5t69 -20.5t69 20.5t21 57.5h51v-14
q0 -55 -36.5 -92.5t-104.5 -37.5z" />
    <glyph glyph-name="Uring" unicode="&#x16e;" horiz-adv-x="656" 
d="M327 -12q-92 0 -149 37.5t-83.5 99t-26.5 133.5v442h84v-443q0 -102 49 -148t128 -46t127 46t48 148v443h84v-442q0 -77 -23 -129t-61.5 -83t-84.5 -44.5t-92 -13.5zM328 761q-43 0 -74 27.5t-31 75.5t31 75.5t74 27.5q44 0 74.5 -27.5t30.5 -75.5t-30.5 -75.5
t-74.5 -27.5zM328 804q24 0 40.5 16.5t16.5 43.5t-16.5 43t-40.5 16t-40.5 -16t-16.5 -43t16.5 -43.5t40.5 -16.5z" />
    <glyph glyph-name="uring" unicode="&#x16f;" horiz-adv-x="572" 
d="M251 -12q-58 0 -101.5 23.5t-67.5 72t-24 122.5v290h84v-281q0 -77 32 -116t96 -39t106.5 46.5t42.5 132.5v257h84v-496h-76l-5 89q-24 -47 -69 -74t-102 -27zM284 557q-43 0 -74 27.5t-31 75.5t31 75.5t74 27.5q44 0 74.5 -27.5t30.5 -75.5t-30.5 -75.5t-74.5 -27.5z
M284 600q24 0 40.5 16.5t16.5 43.5t-16.5 43t-40.5 16t-40.5 -16t-16.5 -43t16.5 -43.5t40.5 -16.5z" />
    <glyph glyph-name="Uhungarumlaut" unicode="&#x170;" horiz-adv-x="656" 
d="M327 -12q-92 0 -149 37.5t-83.5 99t-26.5 133.5v442h84v-443q0 -102 49 -148t128 -46t127 46t48 148v443h84v-442q0 -77 -23 -129t-61.5 -83t-84.5 -44.5t-92 -13.5zM328 753l72 149h73l-89 -149h-56zM182 753l66 149h73l-82 -149h-57z" />
    <glyph glyph-name="uhungarumlaut" unicode="&#x171;" horiz-adv-x="572" 
d="M251 -12q-58 0 -101.5 23.5t-67.5 72t-24 122.5v290h84v-281q0 -77 32 -116t96 -39t106.5 46.5t42.5 132.5v257h84v-496h-76l-5 89q-24 -47 -69 -74t-102 -27zM314 549l72 149h73l-89 -149h-56zM168 549l66 149h73l-82 -149h-57z" />
    <glyph glyph-name="Uogonek" unicode="&#x172;" horiz-adv-x="656" 
d="M327 -12q-92 0 -149 37.5t-83.5 99t-26.5 133.5v442h84v-443q0 -102 49 -148t128 -46t127 46t48 148v443h84v-442q0 -77 -23 -129t-61.5 -83t-84.5 -44.5t-92 -13.5zM331 -193q-46 0 -82 23t-36 72q0 35 25.5 67.5t90.5 60.5l53 23l21 -43l-58 -28q-36 -17 -50 -35
t-14 -37q0 -23 16.5 -36t43.5 -13q31 0 65 15v-56q-19 -7 -37.5 -10t-37.5 -3z" />
    <glyph glyph-name="uogonek" unicode="&#x173;" horiz-adv-x="572" 
d="M251 -12q-58 0 -101.5 23.5t-67.5 72t-24 122.5v290h84v-281q0 -77 32 -116t96 -39t106.5 46.5t42.5 132.5v257h84v-496h-76l-5 89q-24 -47 -69 -74t-102 -27zM431 -203q-46 0 -82 23t-36 72q0 35 25.5 67.5t90.5 60.5l53 23l21 -43l-58 -28q-36 -17 -50 -35t-14 -37
q0 -23 16.5 -36t43.5 -13q31 0 65 15v-56q-19 -7 -37.5 -10t-37.5 -3z" />
    <glyph glyph-name="Wcircumflex" unicode="&#x174;" horiz-adv-x="967" 
d="M273 0l-250 700h86l212 -621l107 304l-111 317h86l80 -248l80 248h86l-111 -317l107 -304l212 621h86l-250 -700h-96l-114 319l-114 -319h-96zM347 755v66l137 81l137 -81v-66l-137 84z" />
    <glyph glyph-name="wcircumflex" unicode="&#x175;" horiz-adv-x="754" 
d="M169 0l-145 496h84l105 -389l116 389h95l117 -389l104 389h85l-145 -496h-86l-122 409l-122 -409h-86zM240 582v70l137 81l137 -81v-70l-137 84z" />
    <glyph glyph-name="Ycircumflex" unicode="&#x176;" horiz-adv-x="579" 
d="M248 0v266l-228 434h95l175 -354l175 354h94l-227 -434v-266h-84zM153 755v66l137 81l137 -81v-66l-137 84z" />
    <glyph glyph-name="ycircumflex" unicode="&#x177;" horiz-adv-x="556" 
d="M123 -220l110 240l-213 476h91l164 -386l174 386h87l-325 -716h-88zM141 582v70l137 81l137 -81v-70l-137 84z" />
    <glyph glyph-name="Ydieresis" unicode="&#x178;" horiz-adv-x="579" 
d="M248 0v266l-228 434h95l175 -354l175 354h94l-227 -434v-266h-84zM201 775q-25 0 -41.5 16.5t-16.5 41.5q0 24 16.5 40t41.5 16q24 0 41 -16t17 -40q0 -25 -17 -41.5t-41 -16.5zM378 775q-25 0 -41.5 16.5t-16.5 41.5q0 24 16.5 40t41.5 16q24 0 41 -16t17 -40
q0 -25 -17 -41.5t-41 -16.5z" />
    <glyph glyph-name="Zacute" unicode="&#x179;" horiz-adv-x="535" 
d="M44 0v66l345 561h-340v73h438v-66l-346 -561h350v-73h-447zM163 741v63l210 127v-73z" />
    <glyph glyph-name="zacute" unicode="&#x17a;" horiz-adv-x="452" 
d="M35 0v69l276 357h-271v70h365v-69l-276 -357h281v-70h-375zM121 553v67l210 127v-77z" />
    <glyph glyph-name="Zdotaccent" unicode="&#x17b;" horiz-adv-x="535" 
d="M44 0v66l345 561h-340v73h438v-66l-346 -561h350v-73h-447zM268 775q-25 0 -41.5 16.5t-16.5 41.5q0 24 16.5 40t41.5 16q24 0 41 -16t17 -40q0 -25 -17 -41.5t-41 -16.5z" />
    <glyph glyph-name="zdotaccent" unicode="&#x17c;" horiz-adv-x="452" 
d="M35 0v69l276 357h-271v70h365v-69l-276 -357h281v-70h-375zM226 606q-25 0 -41.5 16.5t-16.5 41.5q0 24 16.5 40t41.5 16q24 0 41 -16t17 -40q0 -25 -17 -41.5t-41 -16.5z" />
    <glyph glyph-name="Zcaron" unicode="&#x17d;" horiz-adv-x="535" 
d="M44 0v66l345 561h-340v73h438v-66l-346 -561h350v-73h-447zM268 754l-137 82v65l137 -84l137 84v-65z" />
    <glyph glyph-name="zcaron" unicode="&#x17e;" horiz-adv-x="452" 
d="M35 0v69l276 357h-271v70h365v-69l-276 -357h281v-70h-375zM226 586l-137 82v65l137 -84l137 84v-65z" />
    <glyph glyph-name="uni018F" unicode="&#x18f;" horiz-adv-x="755" 
d="M372 -12q-95 0 -168.5 39t-114.5 112q-42 74 -42 177q0 14 1 28.5t2 30.5h568q-3 82 -35 140.5t-86 89.5q-27 16 -57.5 23.5t-64.5 7.5q-81 0 -143 -41.5t-85 -115.5h-95q21 70 66.5 122.5t111.5 81.5t145 29q99 0 174 -46t117 -128t42 -192q0 -107 -42 -187.5
t-117 -125.5q-76 -45 -177 -45zM372 64q67 0 121.5 28t87.5 82q32 52 37 129h-483q-1 -72 28 -126t83 -83q54 -30 126 -30z" />
    <glyph glyph-name="florin" unicode="&#x192;" horiz-adv-x="333" 
d="M-44 -191l6 70h22q30 0 45 14t20 53l56 532h-72l6 70h74l5 48q9 89 62 129.5t152 40.5l-6 -71q-60 0 -89.5 -23t-34.5 -76l-5 -48h120l-6 -70h-122l-56 -532q-5 -48 -23.5 -78.5t-50 -44.5t-78.5 -14h-25z" />
    <glyph glyph-name="uni01CD" unicode="&#x1cd;" horiz-adv-x="664" 
d="M30 0l258 700h89l257 -700h-89l-64 180h-298l-65 -180h-88zM208 248h248l-124 346zM332 754l-137 82v65l137 -84l137 84v-65z" />
    <glyph glyph-name="uni01CE" unicode="&#x1ce;" horiz-adv-x="571" 
d="M234 -12q-51 0 -93 17t-66.5 51.5t-24.5 84.5q0 58 30 92.5t79.5 50t106.5 15.5h134q0 52 -17.5 82t-45.5 43t-62 13q-49 0 -84.5 -23.5t-44.5 -72.5h-86q5 54 36 91t78.5 56.5t100.5 19.5q75 0 121 -27.5t67 -73.5t21 -102v-152q0 -37 9 -56t46 -23v-74q-33 0 -60 8.5
t-45.5 28t-26.5 51.5q-25 -42 -68.5 -71t-104.5 -29zM247 59q50 0 84 25.5t51.5 65.5t17.5 83v1h-127q-35 0 -66 -7.5t-50 -27t-19 -54.5q0 -45 32 -65.5t77 -20.5zM275 586l-137 82v65l137 -84l137 84v-65z" />
    <glyph glyph-name="AEacute" unicode="&#x1fc;" horiz-adv-x="911" 
d="M30 0l399 700h425v-67h-289v-227h243v-68h-243v-271h289v-67h-373v159h-269l-90 -159h-92zM250 226h231v405zM421 741v63l210 127v-73z" />
    <glyph glyph-name="aeacute" unicode="&#x1fd;" horiz-adv-x="913" 
d="M237 -12q-55 0 -97.5 18.5t-66 53t-23.5 81.5q0 51 26 85.5t73.5 52.5t111.5 18h138q0 71 -34.5 105.5t-87.5 34.5q-45 0 -79.5 -24.5t-42.5 -71.5h-87q6 56 38 93t77.5 55.5t93.5 18.5q63 0 108.5 -24t69.5 -67q32 44 80.5 67.5t106.5 23.5q70 0 121 -31.5t79.5 -83.5
t28.5 -115q0 -10 -0.5 -21t-1.5 -25h-385q2 -52 23 -91t56 -60.5t77 -21.5q52 0 85.5 24t50.5 65h83q-14 -46 -44 -82t-74 -57t-100 -21q-66 0 -120 31.5t-85 86.5q-29 -50 -78.5 -84t-120.5 -34zM243 59q40 0 73.5 21t55.5 56t26 76v20h-129q-71 0 -101 -24t-30 -62
q0 -39 28 -63t77 -24zM485 297h303q-4 66 -46 103t-100 37t-103.5 -36t-53.5 -104zM352 553v67l210 127v-77z" />
    <glyph glyph-name="uni0218" unicode="&#x218;" horiz-adv-x="578" 
d="M297 -12q-71 0 -128.5 26t-91 75.5t-33.5 120.5h88q0 -70 46 -110.5t119 -40.5q64 0 106.5 31t42.5 88q0 39 -13.5 62.5t-40.5 39t-68 29.5t-97 33q-50 18 -85.5 41t-54.5 56.5t-19 80.5q-1 62 28.5 104.5t80 65t111.5 22.5q62 0 111.5 -22.5t79.5 -66t31 -105.5h-88
q0 53 -38 87.5t-99 34.5q-54 2 -92 -27t-38 -85q0 -37 15.5 -58.5t53.5 -37.5t105 -39q48 -16 86 -33.5t64 -41t40 -56t14 -79.5q0 -63 -32.5 -106.5t-86 -66t-117.5 -22.5zM240 -238v40q47 0 47 57v14h-45v77h86q5 -20 7 -38.5t2 -35.5q0 -60 -25 -87t-72 -27z" />
    <glyph glyph-name="uni0219" unicode="&#x219;" horiz-adv-x="500" 
d="M259 -12q-59 0 -106 20.5t-75.5 58t-35.5 88.5h86q8 -39 41.5 -67.5t90.5 -28.5q53 0 78 22.5t25 53.5q0 30 -14.5 46t-42 24.5t-67.5 16.5q-42 9 -82 24.5t-66 42.5t-26 71t22 77t62.5 52t95.5 19q79 0 129.5 -39.5t58.5 -112.5h-83q-5 38 -32.5 59.5t-73.5 21.5
q-45 0 -69.5 -19t-24.5 -50q0 -20 14 -34t40.5 -24t62.5 -18q50 -10 91 -25t66 -43.5t25 -81.5q1 -44 -22.5 -79t-66 -55t-101.5 -20zM206 -238v40q47 0 47 57v14h-45v77h86q5 -20 7 -38.5t2 -35.5q0 -60 -25 -87t-72 -27z" />
    <glyph glyph-name="uni021A" unicode="&#x21a;" horiz-adv-x="560" 
d="M238 0v631h-209v69h502v-69h-209v-631h-84zM231 -238v40q47 0 47 57v14h-45v77h86q5 -20 7 -38.5t2 -35.5q0 -60 -25 -87t-72 -27z" />
    <glyph glyph-name="uni021B" unicode="&#x21b;" horiz-adv-x="387" 
d="M265 0q-68 0 -107 33t-39 119v273h-86v71h86v119h84v-119h139v-71h-139v-273q0 -47 19 -63.5t67 -16.5h53v-72h-77zM189 -238v40q47 0 47 57v14h-45v77h86q5 -20 7 -38.5t2 -35.5q0 -60 -25 -87t-72 -27z" />
    <glyph glyph-name="uni0237" unicode="&#x237;" horiz-adv-x="242" 
d="M-28 -220v72h39q37 0 53.5 15.5t16.5 52.5v576h84v-578q0 -48 -16 -78.5t-47.5 -45t-77.5 -14.5h-52z" />
    <glyph glyph-name="uni0259" unicode="&#x259;" horiz-adv-x="569" 
d="M275 -12q-69 0 -121.5 31t-82 83.5t-29.5 117.5v23t1 24h395q-4 77 -48.5 123.5t-112.5 46.5q-52 0 -87 -24t-51 -65h-83q14 46 43.5 82t74.5 57t103 21q75 0 129.5 -33.5t84.5 -92t30 -134.5q0 -77 -31 -135.5t-86.5 -91.5t-128.5 -33zM277 59q60 0 106.5 36.5
t53.5 106.5h-312q3 -67 46 -105t106 -38z" />
    <glyph glyph-name="uni02B9" unicode="&#x2b9;" horiz-adv-x="157" 
d="M50 558l-13 197h83l-12 -197h-58z" />
    <glyph glyph-name="uni02BA" unicode="&#x2ba;" horiz-adv-x="284" 
d="M178 558l-11 197h79l-9 -197h-59zM48 558l-11 197h79l-10 -197h-58z" />
    <glyph glyph-name="circumflex" unicode="&#x2c6;" 
d="M-137 582v70l137 81l137 -81v-70l-137 84z" />
    <glyph glyph-name="caron" unicode="&#x2c7;" 
d="M0 586l-137 82v65l137 -84l137 84v-65z" />
    <glyph glyph-name="breve" unicode="&#x2d8;" 
d="M0 588q-69 0 -104.5 37.5t-35.5 92.5v14h50q0 -37 21 -57.5t69 -20.5t69 20.5t21 57.5h51v-14q0 -55 -36.5 -92.5t-104.5 -37.5z" />
    <glyph glyph-name="dotaccent" unicode="&#x2d9;" 
d="M0 606q-25 0 -41.5 16.5t-16.5 41.5q0 24 16.5 40t41.5 16q24 0 41 -16t17 -40q0 -25 -17 -41.5t-41 -16.5z" />
    <glyph glyph-name="ring" unicode="&#x2da;" 
d="M0 557q-43 0 -74 27.5t-31 75.5t31 75.5t74 27.5q44 0 74.5 -27.5t30.5 -75.5t-30.5 -75.5t-74.5 -27.5zM0 600q24 0 40.5 16.5t16.5 43.5t-16.5 43t-40.5 16t-40.5 -16t-16.5 -43t16.5 -43.5t40.5 -16.5z" />
    <glyph glyph-name="ogonek" unicode="&#x2db;" 
d="M22 -203q-46 0 -82 23t-36 72q0 35 25.5 67.5t90.5 60.5l53 23l21 -43l-58 -28q-36 -17 -50 -35t-14 -37q0 -23 16.5 -36t43.5 -13q31 0 65 15v-56q-19 -7 -37.5 -10t-37.5 -3z" />
    <glyph glyph-name="tilde" unicode="&#x2dc;" 
d="M55 602q-27 0 -44 11t-32 21.5t-39 10.5q-18 0 -28.5 -9t-13.5 -32h-49q7 51 32 76t63 25q27 0 44 -10.5t32.5 -21.5t38.5 -11q16 0 28 9t15 32h49q-6 -49 -32 -75t-64 -26z" />
    <glyph glyph-name="hungarumlaut" unicode="&#x2dd;" 
d="M1 549l72 149h73l-89 -149h-56zM-145 549l66 149h73l-82 -149h-57z" />
    <glyph glyph-name="gravecomb" unicode="&#x300;" 
d="M210 557l-210 117v73l210 -127v-63z" />
    <glyph glyph-name="acutecomb" unicode="&#x301;" 
d="M0 553v67l210 127v-77z" />
    <glyph glyph-name="uni0302" unicode="&#x302;" 
d="M0 582v70l137 81l137 -81v-70l-137 84z" />
    <glyph glyph-name="tildecomb" unicode="&#x303;" 
d="M206 602q-27 0 -44 11t-32 21.5t-39 10.5q-18 0 -28.5 -9t-13.5 -32h-49q7 51 32 76t63 25q27 0 44 -10.5t32.5 -21.5t38.5 -11q16 0 28 9t15 32h49q-6 -49 -32 -75t-64 -26z" />
    <glyph glyph-name="uni0304" unicode="&#x304;" 
d="M0 632v63h347v-63h-347z" />
    <glyph glyph-name="uni0306" unicode="&#x306;" 
d="M140 588q-69 0 -104.5 37.5t-35.5 92.5v14h50q0 -37 21 -57.5t69 -20.5t69 20.5t21 57.5h51v-14q0 -55 -36.5 -92.5t-104.5 -37.5z" />
    <glyph glyph-name="uni0307" unicode="&#x307;" 
d="M58 606q-25 0 -41.5 16.5t-16.5 41.5q0 24 16.5 40t41.5 16q24 0 41 -16t17 -40q0 -25 -17 -41.5t-41 -16.5z" />
    <glyph glyph-name="uni0308" unicode="&#x308;" 
d="M58 606q-25 0 -41.5 16.5t-16.5 41.5q0 24 16.5 40t41.5 16q24 0 41 -16t17 -40q0 -25 -17 -41.5t-41 -16.5zM235 606q-25 0 -41.5 16.5t-16.5 41.5q0 24 16.5 40t41.5 16q24 0 41 -16t17 -40q0 -25 -17 -41.5t-41 -16.5z" />
    <glyph glyph-name="uni030A" unicode="&#x30a;" 
d="M105 557q-43 0 -74 27.5t-31 75.5t31 75.5t74 27.5q44 0 74.5 -27.5t30.5 -75.5t-30.5 -75.5t-74.5 -27.5zM105 600q24 0 40.5 16.5t16.5 43.5t-16.5 43t-40.5 16t-40.5 -16t-16.5 -43t16.5 -43.5t40.5 -16.5z" />
    <glyph glyph-name="uni030B" unicode="&#x30b;" 
d="M146 549l72 149h73l-89 -149h-56zM0 549l66 149h73l-82 -149h-57z" />
    <glyph glyph-name="uni030C" unicode="&#x30c;" 
d="M137 586l-137 82v65l137 -84l137 84v-65z" />
    <glyph glyph-name="uni0312" unicode="&#x312;" 
d="M97 783v-40q-47 0 -47 -57v-14h45v-77h-86q-4 20 -6.5 39t-2.5 35q0 60 25 87t72 27z" />
    <glyph glyph-name="uni0326" unicode="&#x326;" 
d="M0 -238v40q47 0 47 57v14h-45v77h86q5 -20 7 -38.5t2 -35.5q0 -60 -25 -87t-72 -27z" />
    <glyph glyph-name="uni0327" unicode="&#x327;" 
d="M0 -259v53h92q68 0 68 48q0 45 -68 45h-49v130h56v-80q38 1 67 -9.5t45.5 -32.5t16.5 -54q0 -31 -15.5 -53.5t-42.5 -34.5t-63 -12h-107z" />
    <glyph glyph-name="uni0328" unicode="&#x328;" 
d="M118 -203q-46 0 -82 23t-36 72q0 35 25.5 67.5t90.5 60.5l53 23l21 -43l-58 -28q-36 -17 -50 -35t-14 -37q0 -23 16.5 -36t43.5 -13q31 0 65 15v-56q-19 -7 -37.5 -10t-37.5 -3z" />
    <glyph glyph-name="uni0394" unicode="&#x394;" horiz-adv-x="695" 
d="M30 0v65l282 635h70l283 -635v-65h-635zM115 65h465l-233 539z" />
    <glyph glyph-name="Pi" unicode="&#x3a0;" horiz-adv-x="646" 
d="M125 0v430h-79v66h554v-66h-79v-430h-84v430h-228v-430h-84z" />
    <glyph glyph-name="uni03A9" unicode="&#x3a9;" horiz-adv-x="789" 
d="M56 0v66h143q-77 42 -116.5 120.5t-39.5 170.5q0 78 26.5 143t74 112.5t111.5 73.5t139 26q76 0 140 -26t112 -73.5t74.5 -112.5t26.5 -143q0 -92 -40 -170.5t-117 -120.5h142v-66h-274v69q67 17 112 59t68.5 100.5t23.5 123.5q0 72 -23 125.5t-62 88.5t-86.5 52.5
t-96.5 17.5q-69 0 -119 -24.5t-83 -66t-49 -92t-16 -101.5q0 -70 25 -128t71 -98.5t108 -56.5v-69h-275z" />
    <glyph glyph-name="uni03BC" unicode="&#x3bc;" horiz-adv-x="583" 
d="M69 -220v716h84v-281q0 -77 32 -116t96 -39t106.5 46.5t42.5 132.5v257h84v-496h-76l-5 88q-24 -46 -69.5 -73t-102.5 -27q-33 0 -60 8t-48 24v-240h-84z" />
    <glyph glyph-name="Wgrave" unicode="&#x1e80;" horiz-adv-x="967" 
d="M273 0l-250 700h86l212 -621l107 304l-111 317h86l80 -248l80 248h86l-111 -317l107 -304l212 621h86l-250 -700h-96l-114 319l-114 -319h-96zM589 741l-210 117v73l210 -127v-63z" />
    <glyph glyph-name="wgrave" unicode="&#x1e81;" horiz-adv-x="754" 
d="M169 0l-145 496h84l105 -389l116 389h95l117 -389l104 389h85l-145 -496h-86l-122 409l-122 -409h-86zM482 557l-210 117v73l210 -127v-63z" />
    <glyph glyph-name="Wacute" unicode="&#x1e82;" horiz-adv-x="967" 
d="M273 0l-250 700h86l212 -621l107 304l-111 317h86l80 -248l80 248h86l-111 -317l107 -304l212 621h86l-250 -700h-96l-114 319l-114 -319h-96zM379 741v63l210 127v-73z" />
    <glyph glyph-name="wacute" unicode="&#x1e83;" horiz-adv-x="754" 
d="M169 0l-145 496h84l105 -389l116 389h95l117 -389l104 389h85l-145 -496h-86l-122 409l-122 -409h-86zM272 553v67l210 127v-77z" />
    <glyph glyph-name="Wdieresis" unicode="&#x1e84;" horiz-adv-x="967" 
d="M273 0l-250 700h86l212 -621l107 304l-111 317h86l80 -248l80 248h86l-111 -317l107 -304l212 621h86l-250 -700h-96l-114 319l-114 -319h-96zM395 775q-25 0 -41.5 16.5t-16.5 41.5q0 24 16.5 40t41.5 16q24 0 41 -16t17 -40q0 -25 -17 -41.5t-41 -16.5zM572 775
q-25 0 -41.5 16.5t-16.5 41.5q0 24 16.5 40t41.5 16q24 0 41 -16t17 -40q0 -25 -17 -41.5t-41 -16.5z" />
    <glyph glyph-name="wdieresis" unicode="&#x1e85;" horiz-adv-x="754" 
d="M169 0l-145 496h84l105 -389l116 389h95l117 -389l104 389h85l-145 -496h-86l-122 409l-122 -409h-86zM288 606q-25 0 -41.5 16.5t-16.5 41.5q0 24 16.5 40t41.5 16q24 0 41 -16t17 -40q0 -25 -17 -41.5t-41 -16.5zM465 606q-25 0 -41.5 16.5t-16.5 41.5q0 24 16.5 40
t41.5 16q24 0 41 -16t17 -40q0 -25 -17 -41.5t-41 -16.5z" />
    <glyph glyph-name="uni1E9E" unicode="&#x1e9e;" horiz-adv-x="664" 
d="M441 -10q-83 0 -139 47t-64 132h83q4 -46 33 -79.5t86 -33.5q44 0 72.5 22t28.5 66q0 31 -13.5 50t-37 31t-52.5 21q-35 12 -69 28t-56.5 40t-22.5 61q0 32 15.5 51t34.5 32q11 7 21.5 14t21.5 14q23 14 36 32t13 44q0 53 -39.5 76t-92.5 23q-54 0 -86 -20t-46 -53.5
t-14 -75.5v-512h-83v520q0 69 29 116t81 71.5t121 24.5q58 0 106.5 -18.5t78 -55t29.5 -89.5q0 -35 -14.5 -58.5t-35.5 -38.5t-41 -27q-16 -10 -33 -23.5t-17 -35.5t20 -37t46.5 -25t47.5 -17q62 -22 99.5 -56.5t37.5 -100.5q0 -52 -24.5 -87.5t-66.5 -54t-94 -18.5z" />
    <glyph glyph-name="uni1EBC" unicode="&#x1ebc;" horiz-adv-x="564" 
d="M74 0v700h433v-69h-349v-227h305v-68h-305v-267h349v-69h-433zM337 756q-27 0 -44 12t-32 23.5t-39 11.5q-36 0 -42 -45h-49q7 51 32 76t63 25q27 0 44 -11.5t32.5 -23.5t38.5 -12q16 0 28 11t15 34h49q-6 -49 -32 -75t-64 -26z" />
    <glyph glyph-name="uni1EBD" unicode="&#x1ebd;" horiz-adv-x="569" 
d="M292 -12q-69 0 -124.5 32t-87.5 90.5t-32 137.5q0 78 30.5 136.5t86 91t129.5 32.5q70 0 122 -31t81.5 -83.5t29.5 -117.5v-22t-1 -25h-395q3 -49 23.5 -87.5t56 -60.5t81.5 -22q52 0 87 24t51 65h83q-13 -46 -43 -82t-74.5 -57t-103.5 -21zM132 294h312q-3 67 -46 105
t-106 38q-60 0 -106.5 -36.5t-53.5 -106.5zM344 602q-27 0 -44 11t-32 21.5t-39 10.5q-18 0 -28.5 -9t-13.5 -32h-49q7 51 32 76t63 25q27 0 44 -10.5t32.5 -21.5t38.5 -11q16 0 28 9t15 32h49q-6 -49 -32 -75t-64 -26z" />
    <glyph glyph-name="Ygrave" unicode="&#x1ef2;" horiz-adv-x="579" 
d="M248 0v266l-228 434h95l175 -354l175 354h94l-227 -434v-266h-84zM395 741l-210 117v73l210 -127v-63z" />
    <glyph glyph-name="ygrave" unicode="&#x1ef3;" horiz-adv-x="556" 
d="M123 -220l110 240l-213 476h91l164 -386l174 386h87l-325 -716h-88zM383 557l-210 117v73l210 -127v-63z" />
    <glyph glyph-name="uni1EF8" unicode="&#x1ef8;" horiz-adv-x="579" 
d="M248 0v266l-228 434h95l175 -354l175 354h94l-227 -434v-266h-84zM345 756q-27 0 -44 12t-32 23.5t-39 11.5q-36 0 -42 -45h-49q7 51 32 76t63 25q27 0 44 -11.5t32.5 -23.5t38.5 -12q16 0 28 11t15 34h49q-6 -49 -32 -75t-64 -26z" />
    <glyph glyph-name="uni1EF9" unicode="&#x1ef9;" horiz-adv-x="556" 
d="M123 -220l110 240l-213 476h91l164 -386l174 386h87l-325 -716h-88zM333 602q-27 0 -44 11t-32 21.5t-39 10.5q-18 0 -28.5 -9t-13.5 -32h-49q7 51 32 76t63 25q27 0 44 -10.5t32.5 -21.5t38.5 -11q16 0 28 9t15 32h49q-6 -49 -32 -75t-64 -26z" />
    <glyph glyph-name="endash" unicode="&#x2013;" horiz-adv-x="641" 
d="M59 255v71h524v-71h-524z" />
    <glyph glyph-name="emdash" unicode="&#x2014;" horiz-adv-x="846" 
d="M59 255v71h728v-71h-728z" />
    <glyph glyph-name="quoteleft" unicode="&#x2018;" horiz-adv-x="212" 
d="M29 477l90 223h60l-56 -223h-94z" />
    <glyph glyph-name="quoteright" unicode="&#x2019;" horiz-adv-x="213" 
d="M33 477l58 223h94l-92 -223h-60z" />
    <glyph glyph-name="quotesinglbase" unicode="&#x201a;" horiz-adv-x="184" 
d="M2 -121l57 223h94l-91 -223h-60z" />
    <glyph glyph-name="quotedblleft" unicode="&#x201c;" horiz-adv-x="370" 
d="M185 477l91 223h60l-57 -223h-94zM29 477l90 223h60l-56 -223h-94z" />
    <glyph glyph-name="quotedblright" unicode="&#x201d;" horiz-adv-x="370" 
d="M190 477l57 223h94l-91 -223h-60zM33 477l58 223h94l-92 -223h-60z" />
    <glyph glyph-name="quotedblbase" unicode="&#x201e;" horiz-adv-x="342" 
d="M2 -121l57 223h94l-91 -223h-60zM161 -121l56 223h94l-90 -223h-60z" />
    <glyph glyph-name="dagger" unicode="&#x2020;" horiz-adv-x="531" 
d="M224 -259l8 747l-191 -7v67l191 -8l-8 240h83l-8 -240l190 8v-67l-190 7l8 -747h-83z" />
    <glyph glyph-name="daggerdbl" unicode="&#x2021;" horiz-adv-x="532" 
d="M224 -259l9 240l-191 -7v67l191 -8v455l-191 -7v67l191 -8l-9 240h83l-8 -240l191 8v-67l-191 7v-455l191 8v-67l-191 7l8 -240h-83z" />
    <glyph glyph-name="bullet" unicode="&#x2022;" horiz-adv-x="358" 
d="M178 213q-33 0 -60 16t-43 43.5t-16 60.5q0 34 16 61.5t43 43.5t60 16q34 0 61.5 -16t43.5 -43.5t16 -61.5q0 -33 -16 -60.5t-43.5 -43.5t-61.5 -16z" />
    <glyph glyph-name="ellipsis" unicode="&#x2026;" horiz-adv-x="563" 
d="M466 -5q-25 0 -41.5 16.5t-16.5 40.5t16.5 40.5t41.5 16.5q24 0 40.5 -16.5t16.5 -40.5t-16.5 -40.5t-40.5 -16.5zM98 -5q-25 0 -41.5 16.5t-16.5 40.5t16.5 40.5t41.5 16.5q24 0 40.5 -16.5t16.5 -40.5t-16.5 -40.5t-40.5 -16.5zM282 -5q-25 0 -41.5 16.5t-16.5 40.5
t16.5 40.5t41.5 16.5q24 0 40.5 -16.5t16.5 -40.5t-16.5 -40.5t-40.5 -16.5z" />
    <glyph glyph-name="perthousand" unicode="&#x2030;" horiz-adv-x="1123" 
d="M138 0l407 700h84l-407 -700h-84zM200 375q-45 0 -81.5 21t-57.5 58q-21 38 -21 89q0 52 21.5 89.5t58.5 58.5q37 20 81 20q45 0 81 -20t57 -58q11 -19 16 -41.5t5 -48.5q0 -52 -21.5 -89.5t-57.5 -57.5q-36 -21 -81 -21zM200 438q35 0 62.5 26.5t27.5 78.5
q0 53 -27 79.5t-62 26.5q-36 0 -63.5 -26.5t-27.5 -79.5q0 -52 27 -78.5t63 -26.5zM574 -12q-45 0 -81.5 21t-57.5 58q-21 38 -21 89q0 52 21.5 89.5t57.5 58.5q37 20 81 20q45 0 81 -20t57 -58q11 -19 16 -41.5t5 -48.5q0 -52 -21 -89.5t-57 -57.5q-36 -21 -81 -21zM573 51
q36 0 63.5 26.5t27.5 78.5q0 53 -27 79.5t-63 26.5q-35 0 -63 -26.5t-28 -79.5q0 -52 27.5 -78.5t62.5 -26.5zM923 -12q-45 0 -81 21t-57 58q-22 37 -22 89t21.5 89.5t58.5 58.5q37 20 81 20q45 0 81 -20t57 -58q11 -19 16 -41.5t5 -48.5q0 -52 -21 -89.5t-57 -57.5
q-37 -21 -82 -21zM923 51q36 0 63 26.5t27 78.5q0 53 -26.5 79.5t-62.5 26.5t-63.5 -26.5t-27.5 -79.5q0 -52 27 -78.5t63 -26.5z" />
    <glyph glyph-name="guilsinglleft" unicode="&#x2039;" horiz-adv-x="274" 
d="M141 120l-97 175l97 175h83l-100 -175l100 -175h-83z" />
    <glyph glyph-name="guilsinglright" unicode="&#x203a;" horiz-adv-x="274" 
d="M50 120l100 175l-100 175h83l97 -175l-97 -175h-83z" />
    <glyph glyph-name="fraction" unicode="&#x2044;" horiz-adv-x="571" 
d="M-7 0l519 700h71l-520 -700h-70z" />
    <glyph glyph-name="uni2070" unicode="&#x2070;" horiz-adv-x="324" 
d="M162 342q-48 0 -77 24t-42 65.5t-13 92.5t13 92t42 65t77 24t77 -23.5t42 -64.5t13 -93t-13 -93.5t-42 -65t-77 -23.5zM162 399q17 0 30 8.5t21 25t12 39.5t4 52q0 38 -7 66t-22 43t-38 15t-38 -15t-22 -43t-7 -66t7 -66.5t22 -43.5t38 -15z" />
    <glyph glyph-name="uni2074" unicode="&#x2074;" horiz-adv-x="304" 
d="M183 347v66h-162v51l119 236h64l-114 -231h97v91h60v-91h41v-56h-41v-66h-64z" />
    <glyph glyph-name="uni2075" unicode="&#x2075;" horiz-adv-x="312" 
d="M156 342q-61 0 -93.5 32.5t-34.5 72.5h63q5 -22 22.5 -36t42.5 -14q29 0 46.5 20.5t17.5 51.5q0 32 -17.5 50.5t-45.5 18.5q-22 0 -38.5 -11t-23.5 -28h-62l30 201h195v-56h-147l-16 -82q11 12 30 20t43 8q55 0 84.5 -36t29.5 -85q0 -56 -35.5 -91.5t-90.5 -35.5z" />
    <glyph glyph-name="uni2076" unicode="&#x2076;" horiz-adv-x="312" 
d="M165 342q-47 0 -77 23.5t-44 62t-14 84.5q0 49 13 93t42 72t78 28q47 0 77 -28.5t35 -72.5h-59q-4 23 -17.5 35.5t-36.5 12.5q-31 0 -49.5 -31t-19.5 -94q11 21 33.5 34.5t49.5 13.5q32 0 56 -16t37 -42t13 -56q0 -31 -14.5 -58t-41 -44t-61.5 -17zM161 397
q26 0 42.5 17.5t16.5 43.5q0 29 -17 45.5t-43 16.5q-25 0 -42 -17.5t-17 -43.5q0 -27 17.5 -44.5t42.5 -17.5z" />
    <glyph glyph-name="uni2077" unicode="&#x2077;" horiz-adv-x="318" 
d="M80 347l140 298h-190v55h258v-46l-141 -307h-67z" />
    <glyph glyph-name="uni2078" unicode="&#x2078;" horiz-adv-x="305" 
d="M153 342q-34 0 -61.5 12.5t-44.5 36t-17 55.5q0 31 15 55t43 36q-23 11 -36 30.5t-13 43.5q0 45 34 69.5t80 24.5q31 0 57 -11t41.5 -32t15.5 -51q0 -24 -13.5 -44t-36.5 -30q29 -11 43.5 -36t14.5 -55q0 -33 -17.5 -56.5t-45 -35.5t-59.5 -12zM154 396q26 0 42.5 14.5
t16.5 40.5q0 28 -16 42.5t-43 14.5q-28 0 -44.5 -14.5t-16.5 -42.5q0 -24 15 -39.5t46 -15.5zM153 556q23 0 37 13t14 35q0 23 -14 36t-37 13q-51 0 -51 -49q0 -22 14.5 -35t36.5 -13z" />
    <glyph glyph-name="uni2079" unicode="&#x2079;" horiz-adv-x="312" 
d="M149 342q-47 0 -77 28.5t-35 72.5h59q5 -22 18 -35t36 -13q32 0 50 31t19 94q-11 -21 -33.5 -34.5t-49.5 -13.5q-32 0 -56 16t-37 42.5t-13 55.5q0 31 14.5 58t41 44t61.5 17q48 0 77.5 -23.5t43.5 -62t14 -84.5q0 -48 -13 -92.5t-42 -72.5t-78 -28zM152 527q25 0 42 18
t17 43q0 27 -17 44.5t-43 17.5t-42.5 -17.5t-16.5 -43.5q0 -28 17 -45t43 -17z" />
    <glyph glyph-name="uni2080" unicode="&#x2080;" horiz-adv-x="324" 
d="M162 -5q-48 0 -77 24.5t-42 65.5t-13 92t13 92t42 65t77 24t77 -23.5t42 -64.5t13 -93t-13 -93.5t-42 -65t-77 -23.5zM162 52q17 0 30 8.5t21 25t12 39.5t4 52q0 38 -7 66t-22 43t-38 15t-38 -15t-22 -43t-7 -66t7 -66.5t22 -43.5t38 -15z" />
    <glyph glyph-name="uni2081" unicode="&#x2081;" horiz-adv-x="316" 
d="M42 0v55h95v226l-92 -21v49l119 44h34v-298h83v-55h-239z" />
    <glyph glyph-name="uni2082" unicode="&#x2082;" horiz-adv-x="310" 
d="M33 0v47l5 5t13.5 14t20 21t24 25.5t25.5 26.5q34 35 58.5 61.5t24.5 51.5q0 23 -14.5 37.5t-38.5 14.5q-28 0 -41.5 -18.5t-13.5 -43.5h-63q2 57 35 86.5t85 29.5q59 0 86.5 -30.5t27.5 -74.5q0 -37 -24 -66t-57 -64l-68 -68h157v-55h-242z" />
    <glyph glyph-name="uni2083" unicode="&#x2083;" horiz-adv-x="320" 
d="M161 -5q-56 0 -90.5 29.5t-36.5 85.5h63q0 -26 17 -43t47 -17q29 0 46 15.5t17 46.5q0 29 -17.5 43.5t-45.5 14.5q-10 0 -19.5 -2.5t-17.5 -7.5l-36 42l108 96h-151v55h230v-53l-89 -81q50 -4 75 -35t25 -72q0 -55 -34.5 -86t-90.5 -31z" />
    <glyph glyph-name="uni2084" unicode="&#x2084;" horiz-adv-x="304" 
d="M183 0v66h-162v51l119 236h64l-114 -231h97v91h60v-91h41v-56h-41v-66h-64z" />
    <glyph glyph-name="uni2085" unicode="&#x2085;" horiz-adv-x="312" 
d="M156 -5q-61 0 -93.5 32.5t-34.5 72.5h63q5 -22 22.5 -36t42.5 -14q29 0 46.5 20.5t17.5 51.5q0 32 -17.5 50.5t-45.5 18.5q-22 0 -38.5 -11t-23.5 -28h-62l30 201h195v-56h-147l-16 -82q11 12 30 20t43 8q55 0 84.5 -36t29.5 -85q0 -56 -35.5 -91.5t-90.5 -35.5z" />
    <glyph glyph-name="uni2086" unicode="&#x2086;" horiz-adv-x="312" 
d="M165 -5q-47 0 -77 23.5t-44 62t-14 84.5q0 49 13 93t42 72t78 28q47 0 77 -28.5t35 -72.5h-59q-4 23 -17.5 35.5t-36.5 12.5q-31 0 -49.5 -31t-19.5 -94q11 21 33.5 34.5t49.5 13.5q32 0 56 -16t37 -42t13 -56q0 -31 -14.5 -58t-41 -44t-61.5 -17zM161 50q26 0 42.5 17.5
t16.5 43.5q0 29 -17 45.5t-43 16.5q-25 0 -42 -17.5t-17 -43.5q0 -27 17.5 -44.5t42.5 -17.5z" />
    <glyph glyph-name="uni2087" unicode="&#x2087;" horiz-adv-x="318" 
d="M80 0l140 298h-190v55h258v-46l-141 -307h-67z" />
    <glyph glyph-name="uni2088" unicode="&#x2088;" horiz-adv-x="305" 
d="M153 -5q-34 0 -61.5 12.5t-44.5 36t-17 55.5q0 31 15 55t43 36q-23 11 -36 30.5t-13 43.5q0 45 34 69.5t80 24.5q31 0 57 -11t41.5 -32t15.5 -51q0 -24 -13.5 -44t-36.5 -30q29 -11 43.5 -36t14.5 -55q0 -33 -17.5 -56.5t-45 -35.5t-59.5 -12zM154 49q26 0 42.5 14.5
t16.5 40.5q0 28 -16 42.5t-43 14.5q-28 0 -44.5 -14.5t-16.5 -42.5q0 -24 15 -39.5t46 -15.5zM153 209q23 0 37 13t14 35q0 23 -14 36t-37 13q-51 0 -51 -49q0 -22 14.5 -35t36.5 -13z" />
    <glyph glyph-name="uni2089" unicode="&#x2089;" horiz-adv-x="312" 
d="M149 -5q-47 0 -77 28.5t-35 72.5h59q5 -22 18 -35t36 -13q32 0 50 31t19 94q-11 -21 -33.5 -34.5t-49.5 -13.5q-32 0 -56 16t-37 42.5t-13 55.5q0 31 14.5 58t41 44t61.5 17q48 0 77.5 -23.5t43.5 -62t14 -84.5q0 -48 -13 -92.5t-42 -72.5t-78 -28zM152 180q25 0 42 18
t17 43q0 27 -17 44.5t-43 17.5t-42.5 -17.5t-16.5 -43.5q0 -28 17 -45t43 -17z" />
    <glyph glyph-name="uni20A8" unicode="&#x20a8;" horiz-adv-x="1076" 
d="M74 0v700h207q74 0 126 -21.5t80 -64.5t28 -109q0 -82 -42.5 -124t-115.5 -55l201 -326h-104l-180 310h-116v-310h-84zM158 381h121q56 0 89 13.5t47 41.5t14 69q0 42 -14 70t-47 41.5t-89 13.5h-121v-249zM835 -12q-59 0 -106 20.5t-75.5 58t-35.5 88.5h86
q8 -39 41.5 -67.5t90.5 -28.5q53 0 78 22.5t25 53.5q0 30 -14.5 46t-42 24.5t-67.5 16.5q-42 9 -82 24.5t-66 42.5t-26 71t22 77t62.5 52t95.5 19q79 0 129.5 -39.5t58.5 -112.5h-83q-5 38 -32.5 59.5t-73.5 21.5q-45 0 -69.5 -19t-24.5 -50q0 -20 14 -34t40.5 -24t62.5 -18
q50 -10 91 -25t66 -43.5t25 -81.5q1 -44 -22.5 -79t-66 -55t-101.5 -20z" />
    <glyph glyph-name="Euro" unicode="&#x20ac;" horiz-adv-x="775" 
d="M435 -12q-127 0 -211 69t-111 185h-90v63h81q-1 11 -1.5 22.5t-0.5 22.5t0.5 23t1.5 23h-81v62h91q27 116 111 185t210 69q121 0 196 -57.5t96 -160.5h-93q-16 65 -65 104.5t-134 39.5q-88 0 -149 -47t-84 -133h253v-62h-265q-1 -11 -1.5 -22.5t-0.5 -23.5t0.5 -23
t1.5 -22h265v-63h-254q24 -85 85 -132.5t149 -47.5q85 0 134 38.5t65 102.5h93q-21 -101 -96 -158t-196 -57z" />
    <glyph glyph-name="uni20BD" unicode="&#x20bd;" horiz-adv-x="621" 
d="M127 0v126h-87v67h87v101h-87v69h87v336h220q74 0 127.5 -23.5t82.5 -68.5t29 -111q0 -68 -30.5 -113t-84.5 -67t-124 -22h-136v-101h223v-67h-223v-126h-84zM211 363h135q83 0 119 36.5t36 96.5q0 64 -36 100.5t-119 36.5h-135v-270z" />
    <glyph glyph-name="uni2113" unicode="&#x2113;" horiz-adv-x="232" 
d="M74 -100v820h84v-820h-84z" />
    <glyph glyph-name="trademark" unicode="&#x2122;" horiz-adv-x="732" 
d="M326 350v350h85l93 -225l98 225h80v-350h-63v256l-93 -210h-48l-92 214v-260h-60zM117 350v297h-90v53h245v-53h-90v-297h-65z" />
    <glyph glyph-name="uni2126" unicode="&#x2126;" horiz-adv-x="789" 
d="M56 0v66h143q-77 42 -116.5 120.5t-39.5 170.5q0 78 26.5 143t74 112.5t111.5 73.5t139 26q76 0 140 -26t112 -73.5t74.5 -112.5t26.5 -143q0 -92 -40 -170.5t-117 -120.5h142v-66h-274v69q67 17 112 59t68.5 100.5t23.5 123.5q0 72 -23 125.5t-62 88.5t-86.5 52.5
t-96.5 17.5q-69 0 -119 -24.5t-83 -66t-49 -92t-16 -101.5q0 -70 25 -128t71 -98.5t108 -56.5v-69h-275z" />
    <glyph glyph-name="estimated" unicode="&#x212e;" horiz-adv-x="762" 
d="M390 -12q-100 0 -179.5 40t-124.5 118q-46 76 -46 188q0 105 39.5 191t115.5 137q75 50 186 50q83 0 146.5 -27.5t106.5 -74.5q44 -46 66 -105.5t22 -124.5v-63h-549v-170q40 -49 91.5 -75t125.5 -26q78 0 140 35.5t124 97.5l40 -43q-64 -69 -139.5 -108.5t-164.5 -39.5z
M173 381h406v181q-31 44 -82.5 68t-115.5 24t-118 -25t-90 -78v-170z" />
    <glyph glyph-name="oneeighth" unicode="&#x215b;" horiz-adv-x="762" 
d="M98 0l519 700h71l-520 -700h-70zM40 347v55h95v226l-92 -21v50l119 43h34v-298h83v-55h-239zM595 49q26 0 42.5 14.5t16.5 40.5q0 28 -16 42.5t-43 14.5q-28 0 -44.5 -14.5t-16.5 -42.5q0 -24 15 -39.5t46 -15.5zM594 -5q-33 0 -61 12.5t-45 36t-17 55.5q0 31 15 55
t43 36q-23 11 -36 30.5t-13 43.5q0 45 34 69.5t80 24.5q31 0 57 -11t41.5 -32t15.5 -51q0 -24 -13.5 -44t-36.5 -30q29 -11 43.5 -36t14.5 -55q0 -33 -17.5 -56.5t-45 -35.5t-59.5 -12zM594 209q23 0 37 13t14 35q0 23 -14 36t-37 13q-51 0 -51 -49q0 -22 14.5 -35t36.5 -13
z" />
    <glyph glyph-name="threeeighths" unicode="&#x215c;" horiz-adv-x="762" 
d="M98 0l519 700h71l-520 -700h-70zM166 342q-56 0 -90.5 29.5t-36.5 85.5h63q0 -26 17 -43t47 -17q29 0 46 15.5t17 46.5q0 29 -17.5 43.5t-45.5 14.5q-10 0 -19.5 -2.5t-17.5 -7.5l-36 42l108 96h-151v55h230v-53l-89 -81q50 -4 75 -35t25 -72q0 -55 -34.5 -86t-90.5 -31z
M595 49q26 0 42.5 14.5t16.5 40.5q0 28 -16 42.5t-43 14.5q-28 0 -44.5 -14.5t-16.5 -42.5q0 -24 15 -39.5t46 -15.5zM594 -5q-33 0 -61 12.5t-45 36t-17 55.5q0 31 15 55t43 36q-23 11 -36 30.5t-13 43.5q0 45 34 69.5t80 24.5q31 0 57 -11t41.5 -32t15.5 -51
q0 -24 -13.5 -44t-36.5 -30q29 -11 43.5 -36t14.5 -55q0 -33 -17.5 -56.5t-45 -35.5t-59.5 -12zM594 209q23 0 37 13t14 35q0 23 -14 36t-37 13q-51 0 -51 -49q0 -22 14.5 -35t36.5 -13z" />
    <glyph glyph-name="fiveeighths" unicode="&#x215d;" horiz-adv-x="766" 
d="M102 0l519 700h71l-520 -700h-70zM172 342q-61 0 -93.5 32.5t-34.5 72.5h63q5 -22 22.5 -36t42.5 -14q29 0 46.5 20.5t17.5 51.5q0 32 -17.5 50.5t-45.5 18.5q-22 0 -38.5 -11t-23.5 -28h-62l30 201h195v-56h-147l-16 -82q11 12 30 20t43 8q55 0 84.5 -36t29.5 -85
q0 -56 -35.5 -91.5t-90.5 -35.5zM599 49q26 0 42.5 14.5t16.5 40.5q0 28 -16 42.5t-43 14.5q-28 0 -44.5 -14.5t-16.5 -42.5q0 -24 15 -39.5t46 -15.5zM598 -5q-33 0 -61 12.5t-45 36t-17 55.5q0 31 15 55t43 36q-23 11 -36 30.5t-13 43.5q0 45 34 69.5t80 24.5q31 0 57 -11
t41.5 -32t15.5 -51q0 -24 -13.5 -44t-36.5 -30q29 -11 43.5 -35.5t14.5 -54.5q0 -33 -17.5 -56.5t-45 -36t-59.5 -12.5zM598 209q23 0 37 13t14 35q0 23 -14 36t-37 13q-51 0 -51 -49q0 -22 14.5 -35t36.5 -13z" />
    <glyph glyph-name="seveneighths" unicode="&#x215e;" horiz-adv-x="742" 
d="M68 0l519 700h71l-520 -700h-70zM575 49q26 0 42.5 14.5t16.5 40.5q0 28 -16 42.5t-43 14.5q-28 0 -44.5 -14.5t-16.5 -42.5q0 -24 15 -39.5t46 -15.5zM109 347l140 298h-190v55h258v-46l-141 -307h-67zM574 -5q-33 0 -61 12.5t-45 36t-17 55.5q0 31 15 55t43 36
q-23 11 -36 30.5t-13 43.5q0 45 34 69.5t80 24.5q31 0 57 -11t41.5 -32t15.5 -51q0 -24 -13.5 -44t-36.5 -30q29 -11 43.5 -36t14.5 -55q0 -33 -17.5 -56.5t-45 -35.5t-59.5 -12zM574 209q23 0 37 13t14 35q0 23 -14 36t-37 13q-51 0 -51 -49q0 -22 14.5 -35t36.5 -13z" />
    <glyph glyph-name="partialdiff" unicode="&#x2202;" horiz-adv-x="567" 
d="M234 -10q-54 0 -98 25t-70 76q-27 51 -27 130q0 62 18.5 122t53 108.5t83.5 77t111 28.5q48 0 85.5 -24t53.5 -89q-2 70 -17.5 125t-50.5 88q-35 32 -95 32q-19 0 -38.5 -3.5t-41.5 -9.5v50q25 7 49 10.5t46 3.5q110 0 171 -84t61 -243q0 -130 -38.5 -225t-104.5 -146
q-67 -52 -151 -52zM242 62q56 0 98.5 37t66.5 97t24 130q0 82 -33 121t-88 39t-96.5 -35t-65.5 -95q-24 -61 -24 -135q0 -83 34.5 -121t83.5 -38z" />
    <glyph glyph-name="uni2206" unicode="&#x2206;" horiz-adv-x="695" 
d="M30 0v65l282 635h70l283 -635v-65h-635zM115 65h465l-233 539z" />
    <glyph glyph-name="product" unicode="&#x220f;" horiz-adv-x="725" 
d="M117 0v634h-80v66h651v-66h-79v-634h-84v634h-324v-634h-84z" />
    <glyph glyph-name="summation" unicode="&#x2211;" horiz-adv-x="450" 
d="M41 -49v96l262 279l-262 278v96h390v-65h-322l270 -275v-65l-268 -279h320v-65h-390z" />
    <glyph glyph-name="minus" unicode="&#x2212;" horiz-adv-x="600" 
d="M102 255v71h396v-71h-396z" />
    <glyph glyph-name="uni2215" unicode="&#x2215;" horiz-adv-x="391" 
d="M28 -95l251 859h83l-251 -859h-83z" />
    <glyph glyph-name="radical" unicode="&#x221a;" horiz-adv-x="712" 
d="M230 -44l-122 215l-64 -36l-26 44l136 79l113 -200l431 807h60l-487 -909h-41z" />
    <glyph glyph-name="infinity" unicode="&#x221e;" horiz-adv-x="703" 
d="M185 141q-63 0 -105.5 38t-42.5 107q0 47 20 80t54 50.5t75 17.5q59 0 98 -31.5t70 -71.5q23 43 64.5 73.5t98.5 29.5q63 0 106 -38t43 -107q0 -46 -20.5 -79.5t-55 -51t-77.5 -17.5q-57 0 -96 30t-70 69q-24 -41 -64.5 -70.5t-97.5 -28.5zM190 202q38 0 70 23t53 60
q-27 36 -56 62.5t-68 26.5q-36 0 -59 -24t-23 -64q0 -39 22.5 -61.5t60.5 -22.5zM509 201q40 0 63.5 24t23.5 63t-23 62t-60 23q-39 0 -71.5 -24t-53.5 -63q26 -35 54 -60t67 -25z" />
    <glyph glyph-name="integral" unicode="&#x222b;" horiz-adv-x="258" 
d="M-38 -191l7 70h21q28 0 39.5 14.5t15.5 52.5l93 836q6 48 24 77.5t48.5 42.5t72.5 13h22l-7 -71h-19q-25 0 -39 -13t-18 -49l-93 -836q-5 -48 -22 -78.5t-47 -44.5t-74 -14h-24z" />
    <glyph glyph-name="approxequal" unicode="&#x2248;" horiz-adv-x="600" 
d="M383 319q-28 0 -49.5 10t-40.5 23.5t-38 23.5t-43 10q-27 0 -44.5 -18.5t-21.5 -47.5h-63q12 72 46.5 106.5t87.5 34.5q28 0 50 -10t41 -23t38.5 -23t41.5 -10q27 0 44.5 18t21.5 48h63q-11 -72 -45.5 -107t-88.5 -35zM383 112q-28 0 -49.5 10t-40.5 23.5t-38 23.5
t-43 10q-27 0 -44.5 -18.5t-21.5 -47.5h-63q12 72 46.5 106.5t87.5 34.5q28 0 50 -10t41 -23t38.5 -23t41.5 -10q27 0 44.5 18t21.5 48h63q-11 -72 -45.5 -107t-88.5 -35z" />
    <glyph glyph-name="notequal" unicode="&#x2260;" horiz-adv-x="600" 
d="M153 84l36 67h-88v72h126l72 135h-198v73h236l35 66h76l-35 -66h87v-73h-126l-72 -135h198v-72h-236l-36 -67h-75z" />
    <glyph glyph-name="lessequal" unicode="&#x2264;" horiz-adv-x="600" 
d="M368 213l-245 192l245 193h110l-243 -193l243 -192h-110zM129 89v64h349v-64h-349z" />
    <glyph glyph-name="greaterequal" unicode="&#x2265;" horiz-adv-x="600" 
d="M123 213l242 192l-242 193h109l246 -193l-246 -192h-109zM122 89v64h349v-64h-349z" />
    <glyph glyph-name="lozenge" unicode="&#x25ca;" horiz-adv-x="553" 
d="M276 110l-239 240l240 239l239 -239zM276 198l151 152l-150 151l-150 -151z" />
    <glyph glyph-name="uniA78B" unicode="&#xa78b;" horiz-adv-x="221" 
d="M75 229l-10 471h91l-10 -471h-71z" />
    <glyph glyph-name="uniA78C" unicode="&#xa78c;" horiz-adv-x="221" 
d="M80 339l-15 361h91l-15 -361h-61z" />
    <glyph glyph-name="uni004A0301" horiz-adv-x="499" 
d="M230 -12q-95 0 -149 53t-54 147h85q0 -53 26 -89t91 -36q63 0 87.5 35t24.5 87v515h84v-515q0 -93 -51.5 -145t-143.5 -52zM279 741v63l210 127v-73z" />
    <glyph glyph-name="i.loclTRK" horiz-adv-x="222" 
d="M69 0v496h84v-496h-84zM111 606q-25 0 -41.5 16.5t-16.5 41.5q0 24 16.5 40t41.5 16q24 0 41 -16t17 -40q0 -25 -17 -41.5t-41 -16.5z" />
    <glyph glyph-name="uni006A0301" horiz-adv-x="242" 
d="M-28 -220v72h39q37 0 53.5 15.5t16.5 52.5v576h84v-578q0 -48 -16 -78.5t-47.5 -45t-77.5 -14.5h-52zM16 553v67l210 127v-77z" />
    <glyph glyph-name="zero.dnom" horiz-adv-x="324" 
d="M162 -5q-48 0 -77 24.5t-42 65.5t-13 92t13 92t42 65t77 24t77 -23.5t42 -64.5t13 -93t-13 -93.5t-42 -65t-77 -23.5zM162 52q17 0 30 8.5t21 25t12 39.5t4 52q0 38 -7 66t-22 43t-38 15t-38 -15t-22 -43t-7 -66t7 -66.5t22 -43.5t38 -15z" />
    <glyph glyph-name="one.dnom" horiz-adv-x="316" 
d="M42 0v55h95v226l-92 -21v49l119 44h34v-298h83v-55h-239z" />
    <glyph glyph-name="two.dnom" horiz-adv-x="310" 
d="M33 0v47l5 5t13.5 14t20 21t24 25.5t25.5 26.5q34 35 58.5 61.5t24.5 51.5q0 23 -14.5 37.5t-38.5 14.5q-28 0 -41.5 -18.5t-13.5 -43.5h-63q2 57 35 86.5t85 29.5q59 0 86.5 -30.5t27.5 -74.5q0 -37 -24 -66t-57 -64l-68 -68h157v-55h-242z" />
    <glyph glyph-name="three.dnom" horiz-adv-x="320" 
d="M161 -5q-56 0 -90.5 29.5t-36.5 85.5h63q0 -26 17 -43t47 -17q29 0 46 15.5t17 46.5q0 29 -17.5 43.5t-45.5 14.5q-10 0 -19.5 -2.5t-17.5 -7.5l-36 42l108 96h-151v55h230v-53l-89 -81q50 -4 75 -35t25 -72q0 -55 -34.5 -86t-90.5 -31z" />
    <glyph glyph-name="four.dnom" horiz-adv-x="304" 
d="M183 0v66h-162v51l119 236h64l-114 -231h97v91h60v-91h41v-56h-41v-66h-64z" />
    <glyph glyph-name="five.dnom" horiz-adv-x="312" 
d="M156 -5q-61 0 -93.5 32.5t-34.5 72.5h63q5 -22 22.5 -36t42.5 -14q29 0 46.5 20.5t17.5 51.5q0 32 -17.5 50.5t-45.5 18.5q-22 0 -38.5 -11t-23.5 -28h-62l30 201h195v-56h-147l-16 -82q11 12 30 20t43 8q55 0 84.5 -36t29.5 -85q0 -56 -35.5 -91.5t-90.5 -35.5z" />
    <glyph glyph-name="six.dnom" horiz-adv-x="312" 
d="M165 -5q-47 0 -77 23.5t-44 62t-14 84.5q0 49 13 93t42 72t78 28q47 0 77 -28.5t35 -72.5h-59q-4 23 -17.5 35.5t-36.5 12.5q-31 0 -49.5 -31t-19.5 -94q11 21 33.5 34.5t49.5 13.5q32 0 56 -16t37 -42t13 -56q0 -31 -14.5 -58t-41 -44t-61.5 -17zM161 50q26 0 42.5 17.5
t16.5 43.5q0 29 -17 45.5t-43 16.5q-25 0 -42 -17.5t-17 -43.5q0 -27 17.5 -44.5t42.5 -17.5z" />
    <glyph glyph-name="seven.dnom" horiz-adv-x="318" 
d="M80 0l140 298h-190v55h258v-46l-141 -307h-67z" />
    <glyph glyph-name="eight.dnom" horiz-adv-x="305" 
d="M153 -5q-34 0 -61.5 12.5t-44.5 36t-17 55.5q0 31 15 55t43 36q-23 11 -36 30.5t-13 43.5q0 45 34 69.5t80 24.5q31 0 57 -11t41.5 -32t15.5 -51q0 -24 -13.5 -44t-36.5 -30q29 -11 43.5 -36t14.5 -55q0 -33 -17.5 -56.5t-45 -35.5t-59.5 -12zM154 49q26 0 42.5 14.5
t16.5 40.5q0 28 -16 42.5t-43 14.5q-28 0 -44.5 -14.5t-16.5 -42.5q0 -24 15 -39.5t46 -15.5zM153 209q23 0 37 13t14 35q0 23 -14 36t-37 13q-51 0 -51 -49q0 -22 14.5 -35t36.5 -13z" />
    <glyph glyph-name="nine.dnom" horiz-adv-x="312" 
d="M149 -5q-47 0 -77 28.5t-35 72.5h59q5 -22 18 -35t36 -13q32 0 50 31t19 94q-11 -21 -33.5 -34.5t-49.5 -13.5q-32 0 -56 16t-37 42.5t-13 55.5q0 31 14.5 58t41 44t61.5 17q48 0 77.5 -23.5t43.5 -62t14 -84.5q0 -48 -13 -92.5t-42 -72.5t-78 -28zM152 180q25 0 42 18
t17 43q0 27 -17 44.5t-43 17.5t-42.5 -17.5t-16.5 -43.5q0 -28 17 -45t43 -17z" />
    <glyph glyph-name="zero.numr" horiz-adv-x="324" 
d="M162 342q-48 0 -77 24t-42 65.5t-13 92.5t13 92t42 65t77 24t77 -23.5t42 -64.5t13 -93t-13 -93.5t-42 -65t-77 -23.5zM162 399q17 0 30 8.5t21 25t12 39.5t4 52q0 38 -7 66t-22 43t-38 15t-38 -15t-22 -43t-7 -66t7 -66.5t22 -43.5t38 -15z" />
    <glyph glyph-name="one.numr" horiz-adv-x="316" 
d="M42 347v55h95v226l-92 -21v49l119 44h34v-298h83v-55h-239z" />
    <glyph glyph-name="two.numr" horiz-adv-x="310" 
d="M33 347v47l5 5t13.5 14t20 21t24 25.5t25.5 26.5q34 35 58.5 61.5t24.5 51.5q0 23 -14.5 37.5t-38.5 14.5q-28 0 -41.5 -18.5t-13.5 -43.5h-63q2 57 35 86.5t85 29.5q59 0 86.5 -30.5t27.5 -74.5q0 -37 -24 -66t-57 -64l-68 -68h157v-55h-242z" />
    <glyph glyph-name="three.numr" horiz-adv-x="320" 
d="M161 342q-56 0 -90.5 29.5t-36.5 85.5h63q0 -26 17 -43t47 -17q29 0 46 15.5t17 46.5q0 29 -17.5 43.5t-45.5 14.5q-10 0 -19.5 -2.5t-17.5 -7.5l-36 42l108 96h-151v55h230v-53l-89 -81q50 -4 75 -35t25 -72q0 -55 -34.5 -86t-90.5 -31z" />
    <glyph glyph-name="four.numr" horiz-adv-x="304" 
d="M183 347v66h-162v51l119 236h64l-114 -231h97v91h60v-91h41v-56h-41v-66h-64z" />
    <glyph glyph-name="five.numr" horiz-adv-x="312" 
d="M156 342q-61 0 -93.5 32.5t-34.5 72.5h63q5 -22 22.5 -36t42.5 -14q29 0 46.5 20.5t17.5 51.5q0 32 -17.5 50.5t-45.5 18.5q-22 0 -38.5 -11t-23.5 -28h-62l30 201h195v-56h-147l-16 -82q11 12 30 20t43 8q55 0 84.5 -36t29.5 -85q0 -56 -35.5 -91.5t-90.5 -35.5z" />
    <glyph glyph-name="six.numr" horiz-adv-x="312" 
d="M165 342q-47 0 -77 23.5t-44 62t-14 84.5q0 49 13 93t42 72t78 28q47 0 77 -28.5t35 -72.5h-59q-4 23 -17.5 35.5t-36.5 12.5q-31 0 -49.5 -31t-19.5 -94q11 21 33.5 34.5t49.5 13.5q32 0 56 -16t37 -42t13 -56q0 -31 -14.5 -58t-41 -44t-61.5 -17zM161 397
q26 0 42.5 17.5t16.5 43.5q0 29 -17 45.5t-43 16.5q-25 0 -42 -17.5t-17 -43.5q0 -27 17.5 -44.5t42.5 -17.5z" />
    <glyph glyph-name="seven.numr" horiz-adv-x="318" 
d="M80 347l140 298h-190v55h258v-46l-141 -307h-67z" />
    <glyph glyph-name="eight.numr" horiz-adv-x="305" 
d="M153 342q-34 0 -61.5 12.5t-44.5 36t-17 55.5q0 31 15 55t43 36q-23 11 -36 30.5t-13 43.5q0 45 34 69.5t80 24.5q31 0 57 -11t41.5 -32t15.5 -51q0 -24 -13.5 -44t-36.5 -30q29 -11 43.5 -36t14.5 -55q0 -33 -17.5 -56.5t-45 -35.5t-59.5 -12zM154 396q26 0 42.5 14.5
t16.5 40.5q0 28 -16 42.5t-43 14.5q-28 0 -44.5 -14.5t-16.5 -42.5q0 -24 15 -39.5t46 -15.5zM153 556q23 0 37 13t14 35q0 23 -14 36t-37 13q-51 0 -51 -49q0 -22 14.5 -35t36.5 -13z" />
    <glyph glyph-name="nine.numr" horiz-adv-x="312" 
d="M149 342q-47 0 -77 28.5t-35 72.5h59q5 -22 18 -35t36 -13q32 0 50 31t19 94q-11 -21 -33.5 -34.5t-49.5 -13.5q-32 0 -56 16t-37 42.5t-13 55.5q0 31 14.5 58t41 44t61.5 17q48 0 77.5 -23.5t43.5 -62t14 -84.5q0 -48 -13 -92.5t-42 -72.5t-78 -28zM152 527q25 0 42 18
t17 43q0 27 -17 44.5t-43 17.5t-42.5 -17.5t-16.5 -43.5q0 -28 17 -45t43 -17z" />
    <glyph glyph-name="periodcentered.loclCAT" horiz-adv-x="115" 
d="M58 285q-25 0 -41.5 16.5t-16.5 40.5q0 25 16.5 41t41.5 16q24 0 40.5 -16t16.5 -41q0 -24 -16.5 -40.5t-40.5 -16.5z" />
    <glyph glyph-name="periodcentered.loclCAT.case" 
d="M-142 293q-25 0 -41.5 16.5t-16.5 40.5q0 25 16.5 41t41.5 16q24 0 40.5 -16t16.5 -41q0 -24 -16.5 -40.5t-40.5 -16.5z" />
    <glyph glyph-name="at.case" horiz-adv-x="1028" 
d="M519 -84q-97 0 -179 31t-142 88t-93 136t-33 175q0 98 34.5 178.5t96 138t143.5 88.5t177 31q91 0 171 -28t140.5 -81t95 -128t34.5 -169q0 -65 -20.5 -121.5t-61.5 -90.5t-105 -34q-43 0 -74.5 20.5t-47.5 57.5q-25 -30 -61.5 -55t-95.5 -25q-63 0 -110 28.5t-73.5 78
t-26.5 112.5t26.5 112t74 76.5t110.5 27.5q45 0 82 -16.5t63 -48.5v55h80v-278q0 -32 17.5 -53t49.5 -21q40 0 63 26.5t33 66.5t10 80q0 106 -48 184t-132.5 120.5t-193.5 42.5q-82 0 -151.5 -27.5t-121.5 -78t-81 -119t-29 -150.5q0 -84 29.5 -152t81.5 -116t120.5 -74
t147.5 -26q50 0 96 9t86 28l20 -60q-19 -8 -40.5 -15t-46.5 -12q-57 -12 -115 -12zM510 200q67 0 103.5 42.5t36.5 103.5q0 43 -17 75.5t-48.5 51.5t-74.5 19q-64 0 -101.5 -41.5t-37.5 -104.5q0 -67 39 -106.5t100 -39.5z" />
    <glyph glyph-name="plus.case" horiz-adv-x="583" 
d="M254 125v183h-191v71h191v182h75v-182h191v-71h-191v-183h-75z" />
    <glyph glyph-name="uni030C.alt" 
d="M0 546l48 154h94l-82 -154h-60z" />
    <glyph glyph-name="uni0308.case" 
d="M58 775q-25 0 -41.5 16.5t-16.5 41.5q0 24 16.5 40t41.5 16q24 0 41 -16t17 -40q0 -25 -17 -41.5t-41 -16.5zM235 775q-25 0 -41.5 16.5t-16.5 41.5q0 24 16.5 40t41.5 16q24 0 41 -16t17 -40q0 -25 -17 -41.5t-41 -16.5z" />
    <glyph glyph-name="uni0307.case" 
d="M58 775q-25 0 -41.5 16.5t-16.5 41.5q0 24 16.5 40t41.5 16q24 0 41 -16t17 -40q0 -25 -17 -41.5t-41 -16.5z" />
    <glyph glyph-name="gravecomb.case" 
d="M210 741l-210 117v73l210 -127v-63z" />
    <glyph glyph-name="acutecomb.case" 
d="M0 741v63l210 127v-73z" />
    <glyph glyph-name="uni030B.case" 
d="M146 753l72 149h73l-89 -149h-56zM0 753l66 149h73l-82 -149h-57z" />
    <glyph glyph-name="uni030C.alt.case" 
d="M0 546l48 154h94l-82 -154h-60z" />
    <glyph glyph-name="uni0302.case" 
d="M0 755v66l137 81l137 -81v-66l-137 84z" />
    <glyph glyph-name="uni030C.case" 
d="M137 754l-137 82v65l137 -84l137 84v-65z" />
    <glyph glyph-name="uni0306.case" 
d="M140 757q-69 0 -104.5 37.5t-35.5 92.5v14h50q0 -37 21 -57.5t69 -20.5t69 20.5t21 57.5h51v-14q0 -55 -36.5 -92.5t-104.5 -37.5z" />
    <glyph glyph-name="uni030A.case" 
d="M105 761q-43 0 -74 27.5t-31 75.5t31 75.5t74 27.5q44 0 74.5 -27.5t30.5 -75.5t-30.5 -75.5t-74.5 -27.5zM105 804q24 0 40.5 16.5t16.5 43.5t-16.5 43t-40.5 16t-40.5 -16t-16.5 -43t16.5 -43.5t40.5 -16.5z" />
    <glyph glyph-name="tildecomb.case" 
d="M206 756q-27 0 -44 12t-32 23.5t-39 11.5q-36 0 -42 -45h-49q7 51 32 76t63 25q27 0 44 -11.5t32.5 -23.5t38.5 -12q16 0 28 11t15 34h49q-6 -49 -32 -75t-64 -26z" />
    <glyph glyph-name="uni0304.case" 
d="M0 796v63h347v-63h-347z" />
    <glyph glyph-name="uni0327.case" 
d="M0 -259v53h92q68 0 68 48q0 45 -68 45h-49v130h56v-80q38 1 67 -9.5t45.5 -32.5t16.5 -54q0 -31 -15.5 -53.5t-42.5 -34.5t-63 -12h-107z" />
    <glyph glyph-name="uni0328.case" 
d="M118 -203q-46 0 -82 23t-36 72q0 35 25.5 67.5t90.5 60.5l53 23l21 -43l-58 -28q-36 -17 -50 -35t-14 -37q0 -23 16.5 -36t43.5 -13q31 0 65 15v-56q-19 -7 -37.5 -10t-37.5 -3z" />
    <glyph glyph-name="uni0308.narrow" 
d="M68 606q-25 0 -41.5 16.5t-16.5 41.5q0 24 16.5 40t41.5 16q24 0 41 -16t17 -40q0 -25 -17 -41.5t-41 -16.5zM225 606q-25 0 -41.5 16.5t-16.5 41.5q0 24 16.5 40t41.5 16q24 0 41 -16t17 -40q0 -25 -17 -41.5t-41 -16.5z" />
    </font>
</defs>
</svg>
